โหลดหนัง HD MINI-HD SUPER-HQ Full-HD 1080p VIP Master Zoom ซูม หนังใหม่ ออนไลน์ มาสเตอร์ ไทย จีน ฝรั่ง การ์ตูน

[MINI Super-HQ] Miss Sloane (2016) มิสสโลน [1080p] [พากย์ไทย 5.1 + เสียงอังกฤษ DTS] [บรรยายไทย + อังกฤษ] [เสียงไทย + ซับไทย] [FILECLOUD]

0

Miss Sloane (2016) มิสสโลน

โหลดหนัง  Miss Sloane (2016) มิสสโลน

เรื่องย่อ Miss Sloane (2016) มิสสโลน

อลิซาเบธ สโลน (เจสซิก้า แชสแทน) นักวิ่งเต้นสาว ไฟแรง ที่ชอบคิดว่าตัวเองเป็นศูนย์กลางจักรวาล เป็นหนึ่งในคนที่มีอิทธิพลในการชักใยอยู่เบื้องหลัง วอชิงตันมากที่สุด เธอเป็นยอดฝีมือที่ทำงานให้กับบริษัทวิ่งเต้น ที่มี จอร์จ ดูปอนต์ (แซม วอเตอร์สตัน) เป็นเจ้าของ สโลน พร้อมจะทำทุกอย่างเพื่อลูกค้าของเธอ แม้ว่านั่นจะหมายถึงการแหกกฏก็ตาม แต่เมื่อขาใหญ่แห่งวงการค้าอาวุธปืนติดต่อเธอให้ช่วย โน้มน้าวกลุ่มสตรีให้เคลื่อนไหว เพื่อต่อต้านให้เกิดกฏหมายค้าขายอาวุธปืนฉบับใหม่ เธอกลับปฏิเสธทันทีแถมยังไปร่วมทีมกับบริษัทเล็กๆ ที่แทบบจะเอาตัวไม่รอด ที่สนับสนุนกฏหมายฉบับนี้ เธอ และผู้บริหารบริษัท (มาร์ค สตรอง) และทีมนักกฏหมายหน้าใหม่ไฟแรง ร่วมกันหาช่องโหว่ จุดอ่อนที่สามารถใช้บิดเบือน สู่ชัยชนะได้ แต่ชัยชนะที่ว่านั้นอาจต้องและมาด้วยเส้นทางอาชีพและ คนที่เธอรัก!!!

Complete name : [MINI Super-HQ]_Miss.Sloane.2016.1080p.BrRip.DTS.x264.One2loadup.com.mkv
Format : Matroska
Format version : Version 4 / Version 2
File size : 4.17 GiB
Duration : 2 h 12 min
Overall bit rate : 4 519 kb/s
Movie name : [MINI Super-HQ]_Miss.Sloane.2016.1080p.BrRip.DTS.x264.One2loadup.com
Encoded date : UTC 2010-02-22 21:41:31
Writing application : mkvmerge v5.9.0 (‘On The Loose’) built on Dec 9 2012 15:37:01
Writing library : libebml v1.3.0 + libmatroska v1.4.0

Video
ID : 1
Format : AVC
Format/Info : Advanced Video Codec
Format profile : [email protected]
Format settings : CABAC / 4 Ref Frames
Format settings, CABAC : Yes
Format settings, ReFrames : 4 frames
Codec ID : V_MPEG4/ISO/AVC
Duration : 2 h 12 min
Bit rate : 3 226 kb/s
Nominal bit rate : 3 003 kb/s
Width : 1 920 pixels
Height : 804 pixels
Display aspect ratio : 2.40:1
Frame rate mode : Constant
Frame rate : 23.976 (24000/1001) FPS
Color space : YUV
Chroma subsampling : 4:2:0
Bit depth : 8 bits
Scan type : Progressive
Bits/(Pixel*Frame) : 0.087
Stream size : 2.98 GiB (71%)
Title : [MINI Super-HQ]_Miss.Sloane.2016.1080p.BrRip.DTS.x264.One2loadup.com
Writing library : x264 core 130 r2273 b3065e6
Encoding settings : cabac=1 / ref=3 / deblock=1:0:0 / analyse=0x3:0x113 / me=umh / subme=11 / psy=1 / psy_rd=1.00:0.00 / mixed_ref=1 / me_range=48 / chroma_me=1 / trellis=2 / 8x8dct=1 / cqm=0 / deadzone=21,11 / fast_pskip=1 / chroma_qp_offset=-2 / threads=10 / lookahead_threads=1 / sliced_threads=0 / nr=0 / decimate=1 / interlaced=0 / bluray_compat=0 / constrained_intra=0 / bframes=3 / b_pyramid=2 / b_adapt=1 / b_bias=0 / direct=1 / weightb=1 / open_gop=0 / weightp=2 / keyint=240 / keyint_min=24 / scenecut=40 / intra_refresh=0 / rc_lookahead=40 / rc=2pass / mbtree=1 / bitrate=3003 / ratetol=1.0 / qcomp=0.60 / qpmin=0 / qpmax=69 / qpstep=4 / cplxblur=20.0 / qblur=0.5 / ip_ratio=1.40 / aq=1:1.00
Language : English
Default : Yes
Forced : No
Color range : Limited
Color primaries : BT.709
Transfer characteristics : BT.709
Matrix coefficients : BT.709

Audio #1
ID : 2
Format : AC-3
Format/Info : Audio Coding 3
Codec ID : A_AC3
Duration : 2 h 12 min
Bit rate mode : Constant
Bit rate : 448 kb/s
Channel(s) : 6 channels
Channel positions : Front: L C R, Side: L R, LFE
Sampling rate : 48.0 kHz
Frame rate : 31.250 FPS (1536 SPF)
Bit depth : 16 bits
Compression mode : Lossy
Stream size : 424 MiB (10%)
Title : Thai DVD Master
Language : Thai
Service kind : Complete Main
Default : Yes
Forced : Yes

Audio #2
ID : 3
Format : DTS
Format/Info : Digital Theater Systems
Codec ID : A_DTS
Duration : 2 h 12 min
Bit rate mode : Constant
Bit rate : 755 kb/s
Channel(s) : 6 channels
Channel positions : Front: L C R, Side: L R, LFE
Sampling rate : 48.0 kHz
Frame rate : 93.750 FPS (512 SPF)
Bit depth : 24 bits
Compression mode : Lossy
Stream size : 713 MiB (17%)
Title : English DTS
Language : English
Default : No
Forced : No

Text #1
ID : 4
Format : VobSub
Codec ID : S_VOBSUB
Codec ID/Info : Picture based subtitle format used on DVDs
Title : Thai 480p From DVD Master
Language : Thai
Default : No
Forced : No

Text #2
ID : 5
Format : VobSub
Codec ID : S_VOBSUB
Codec ID/Info : Picture based subtitle format used on DVDs
Title : Thai 720p
Language : Thai
Default : No
Forced : No

Text #3
ID : 6
Format : VobSub
Codec ID : S_VOBSUB
Codec ID/Info : Picture based subtitle format used on DVDs
Title : Thai 1080p
Language : Thai
Default : Yes
Forced : Yes

Text #4
ID : 7
Format : VobSub
Codec ID : S_VOBSUB
Codec ID/Info : Picture based subtitle format used on DVDs
Title : Thai 1080p Yellow
Language : Thai
Default : No
Forced : No

Text #5
ID : 8
Format : VobSub
Codec ID : S_VOBSUB
Codec ID/Info : Picture based subtitle format used on DVDs
Title : Thai 1080p Out
Language : Thai
Default : No
Forced : No

Text #6
ID : 9
Format : VobSub
Codec ID : S_VOBSUB
Codec ID/Info : Picture based subtitle format used on DVDs
Title : Thai 1080p BIG
Language : Thai
Default : No
Forced : No

Text #7
ID : 10
Format : VobSub
Codec ID : S_VOBSUB
Codec ID/Info : Picture based subtitle format used on DVDs
Title : Thai 1080p Out [BIG]
Language : Thai
Default : No
Forced : No

Text #8
ID : 11
Format : PGS
Codec ID : S_HDMV/PGS
Codec ID/Info : Picture based subtitle format used on BDs/HD-DVDs
Title : Thai PGS
Language : Thai
Default : No
Forced : No

Text #9
ID : 12
Format : PGS
Codec ID : S_HDMV/PGS
Codec ID/Info : Picture based subtitle format used on BDs/HD-DVDs
Title : Thai PGS Yellow
Language : Thai
Default : No
Forced : No

Text #10
ID : 13
Format : PGS
Codec ID : S_HDMV/PGS
Codec ID/Info : Picture based subtitle format used on BDs/HD-DVDs
Title : Thai PGS Out
Language : Thai
Default : No
Forced : No

Text #11
ID : 14
Format : PGS
Codec ID : S_HDMV/PGS
Codec ID/Info : Picture based subtitle format used on BDs/HD-DVDs
Title : English
Language : English
Default : No
Forced : No

Menu
00:00:00.000 : en:Chapter 1
00:03:17.656 : en:Chapter 2
00:10:02.018 : en:Chapter 3
00:14:33.498 : en:Chapter 4
00:21:39.715 : en:Chapter 5
00:27:24.768 : en:Chapter 6
00:30:24.823 : en:Chapter 7
00:35:40.764 : en:Chapter 8
00:40:37.018 : en:Chapter 9
00:45:36.734 : en:Chapter 10
00:50:08.172 : en:Chapter 11
00:56:55.829 : en:Chapter 12
01:01:31.146 : en:Chapter 13
01:05:00.563 : en:Chapter 14
01:10:10.498 : en:Chapter 15
01:15:56.719 : en:Chapter 16
01:22:25.607 : en:Chapter 17
01:31:17.305 : en:Chapter 18
01:35:47.909 : en:Chapter 19
01:41:48.435 : en:Chapter 20
01:45:25.861 : en:Chapter 21
01:54:30.989 : en:Chapter 22
02:03:40.371 : en:Chapter 23
02:08:02.007 : en:Chapter 24

DOWNLOAD


PART01 |||| PART02 |||| PART03 |||| PART04

PART01 |||| PART02 |||| PART03 |||| PART04

PART01 |||| PART02 |||| PART03 |||| PART04

PART01 |||| PART02 |||| PART03 |||| PART04


Leave A Reply

Your email address will not be published.

%d bloggers like this: