[MINI Super-HQ] Mirror Mirror (2012) จอมโจรสโนไวท์กับราชินีบานฉ่ำ [1080p] [พากย์ไทย 5.1 + เสียงอังกฤษ 5.1] [บรรยายไทย + อังกฤษ] [เสียงไทย + ซับไทย] [OPENLOAD]

0

Mirror Mirror (2012)

โหลดหนัง Mirror Mirror (2012) จอมโจรสโนไวท์กับราชินีบานฉ่ำ

Mirror Mirror (2012) 1h 46min | Adventure, Comedy, Drama | 30 March 2012 (Canada) Summary: An evil queen steals control of a kingdom and an exiled princess enlists the help of seven resourceful rebels to win back her birthright.
Countries: USA, CanadaLanguages: English

เรื่องย่อ Mirror Mirror (2012) จอมโจรสโนไวท์กับราชินีบานฉ่ำ

ผลงานล่าสุดของผู้กำกับไอเดียบรรเจิดจาก Immortals (2011) และ The Cell (2000) ทาร์เซ็ม ซิงค์ ที่ได้นำ Snow White เทพนิยายคลาสสิคของพี่น้องตระกูลกริมม์ มาสร้างใหม่ในสไตล์หลากสีสัน พบ จูเลีย โรเบิร์ตส์ ในบทบาทราชินีใจร้ายสุดบานฉ่ำ และลิลี่ คอลลินส์ ในบทบาทเจ้าหญิงสโนว์ไวท์แสนสดใส

กาลครั้งหนึ่งนานมาแล้ว ในดินแดนที่ปกคลุมไปด้วยหิมะ… หลังจากพระราชาสิ้นพระชนม์ ราชินี (จูเลีย โรเบิร์ตส) ต้องการที่จะช่วงชิงอำนาจมาจาก เจ้าหญิงสโนว์ไวท์ (ลิลลี่ คอลลินส์) ลูกเลี้ยงของเธอ ด้วยการเนรเทศออกไปอยู่นอกอาณาจักร สโนว์ไวท์ ต้องออกผจญภัยและท่องไปในดินแดนที่ไม่เคยสัมผัส จนในที่สุดเธอก็ได้รับความช่วยเหลือจาก เจ้าชายแอนดรูว์ (อาร์มี แฮมเมอร์) และคนแคระทั้งเจ็ด ในการที่จะช่วงชิงอาณาจักรกลับคืนมา… เตรียมพบกับการผจญภัยที่เปี่ยมไปด้วยจินตนาการที่ไม่ สิ้นสุด และแนวทางที่คุณจะไม่เคยเห็นในหนังเทพนิยายมาก่อน

พบกับการผจญภัยของ สโนว์ไวท์ ในดินแดนหิมะ ใน Mirror Mirror จากวิสัยทัศน์ที่ล้ำเหนือจินตนาการของ ทาร์เซ็ม ซิงค์ ผู้กำกับ Immortals นำแสดงโดยซุปเปอร์สตาร์ตลอดกาล จูเลีย โรเบิร์ตส ในบท ราชินีใจร้าย , อาร์มี แฮมเมอร์ จาก The Social Network ในบทเจ้าชายหนุ่มรูปงาม และ ลิลลี่ คอลลินส์ นักแสดงสาวที่มีผลงานการแสดงใน Abduction และ The Blind Side ในบท สโนว์ไวท์

Complete name : [MINI Super-HQ]_Mirror.Mirror.2012.1080p.BrRip.AC3.x264.One2loadup.com.mkv
Format : Matroska
Format version : Version 4
File size : 4.74 GiB
Duration : 1 h 48 min
Overall bit rate : 6 266 kb/s
Movie name : [MINI Super-HQ]_Mirror.Mirror.2012.1080p.BrRip.AC3.x264.One2loadup.com
Encoded date : UTC 2010-02-22 21:41:31
Writing application : mkvmerge v5.9.0 (‘On The Loose’) built on Dec 9 2012 15:37:01
Writing library : libebml v1.3.0 + libmatroska v1.4.0

Video
ID : 1
Format : AVC
Format/Info : Advanced Video Codec
Format profile : [email protected]
Format settings : CABAC / 4 Ref Frames
Format settings, CABAC : Yes
Format settings, ReFrames : 4 frames
Codec ID : V_MPEG4/ISO/AVC
Duration : 1 h 48 min
Bit rate : 5 144 kb/s
Width : 1 920 pixels
Height : 1 080 pixels
Display aspect ratio : 16:9
Frame rate mode : Constant
Frame rate : 24.000 FPS
Color space : YUV
Chroma subsampling : 4:2:0
Bit depth : 8 bits
Scan type : Progressive
Bits/(Pixel*Frame) : 0.103
Stream size : 3.82 GiB (81%)
Title : [MINI Super-HQ]_Mirror.Mirror.2012.1080p.BrRip.AC3.x264.One2loadup.com
Writing library : x264 core 125 r2200 999b753
Encoding settings : cabac=1 / ref=4 / deblock=1:0:0 / analyse=0x3:0x133 / me=umh / subme=10 / psy=1 / psy_rd=1.00:0.00 / mixed_ref=1 / me_range=32 / chroma_me=1 / trellis=2 / 8x8dct=1 / cqm=0 / deadzone=21,11 / fast_pskip=0 / chroma_qp_offset=-2 / threads=12 / lookahead_threads=2 / sliced_threads=0 / nr=0 / decimate=0 / interlaced=0 / bluray_compat=0 / constrained_intra=0 / bframes=5 / b_pyramid=2 / b_adapt=2 / b_bias=0 / direct=3 / weightb=1 / open_gop=0 / weightp=2 / keyint=240 / keyint_min=24 / scenecut=40 / intra_refresh=0 / rc_lookahead=60 / rc=2pass / mbtree=1 / bitrate=5144 / ratetol=1.0 / qcomp=0.60 / qpmin=0 / qpmax=69 / qpstep=4 / cplxblur=20.0 / qblur=0.5 / ip_ratio=1.40 / aq=1:1.00
Default : Yes
Forced : No

Audio #1
ID : 2
Format : AC-3
Format/Info : Audio Coding 3
Commercial name : Dolby Digital
Codec ID : A_AC3
Duration : 1 h 48 min
Bit rate mode : Constant
Bit rate : 640 kb/s
Channel(s) : 6 channels
Channel layout : L R C LFE Ls Rs
Sampling rate : 48.0 kHz
Frame rate : 31.250 FPS (1536 SPF)
Bit depth : 16 bits
Compression mode : Lossy
Stream size : 496 MiB (10%)
Language : English
Service kind : Complete Main
Default : Yes
Forced : Yes

Audio #2
ID : 3
Format : AC-3
Format/Info : Audio Coding 3
Commercial name : Dolby Digital
Codec ID : A_AC3
Duration : 1 h 48 min
Bit rate mode : Constant
Bit rate : 448 kb/s
Channel(s) : 6 channels
Channel layout : L R C LFE Ls Rs
Sampling rate : 48.0 kHz
Frame rate : 31.250 FPS (1536 SPF)
Bit depth : 16 bits
Compression mode : Lossy
Stream size : 347 MiB (7%)
Language : Thai
Service kind : Complete Main
Default : No
Forced : No

Text #1
ID : 4
Format : VobSub
Codec ID : S_VOBSUB
Codec ID/Info : Picture based subtitle format used on DVDs
Language : Thai
Default : No
Forced : No

Text #2
ID : 5
Format : PGS
Codec ID : S_HDMV/PGS
Codec ID/Info : Picture based subtitle format used on BDs/HD-DVDs
Language : Thai
Default : Yes
Forced : Yes

Text #3
ID : 6
Format : UTF-8
Codec ID : S_TEXT/UTF8
Codec ID/Info : UTF-8 Plain Text
Language : English
Default : No
Forced : No

Menu
00:00:00.000 : :Chapter 01
00:08:06.458 : :Chapter 02
00:18:42.791 : :Chapter 03
00:26:28.833 : :Chapter 04
00:29:50.708 : :Chapter 05
00:38:20.125 : :Chapter 06
00:55:32.333 : :Chapter 07
01:02:52.250 : :Chapter 08
01:13:16.208 : :Chapter 09
01:16:29.041 : :Chapter 10
01:31:31.583 : :Chapter 11
01:38:48.833 : :Chapter 12
01:48:10.125 : :Chapter 13

DOWNLOAD


PART01 |||| PART02 |||| PART03 |||| PART04 |||| PART05

PART01 |||| PART02 |||| PART03 |||| PART04 |||| PART05

PART01 |||| PART02 |||| PART03 |||| PART04 |||| PART05

PART01 |||| PART02 |||| PART03 |||| PART04 |||| PART05


Leave A Reply

Your email address will not be published.

%d bloggers like this: