[MINI Super-HQ] Minority Report (2002) หน่วยสกัดอาชญากรรมล่าอนาคต [1080p] [พากย์ไทย 5.1 + เสียงอังกฤษ DTS] [บรรยายไทย + อังกฤษ] [เสียงไทย + ซับไทย] [ONE2UP]

1

Minority Report (2002)

โหลดหนัง Minority Report (2002) หน่วยสกัดอาชญากรรมล่าอนาคต

Minority Report (2002) 2h 25min | Action, Crime, Mystery | 26 September 2002 (Netherlands) Summary: In a future where a special police unit is able to arrest murderers before they commit their crimes, an officer from that unit is himself accused of a future murder.
Countries: USALanguages: English, Swedish

เรื่องย่อ Minority Report (2002) หน่วยสกัดอาชญากรรมล่าอนาคต

หกปีมาแล้ว ที่วอชิงตัน ดีซี ปราศจากคดีฆาตกรรม ต้องขอบคุณเทคโนโลยีอันน่าอัศจรรย์ที่ช่วยชี้เบาะแสฆาตกรก่อนที่พวกเขาจะก่อคดีขึ้น แต่เมื่อหัวหน้าทีมพรีไครม์ (ทอม) ต้องสงสัยว่าจะก่อคดีฆาตกรรมในอนาคตเสียเอง เขามีเวลาเพียง 36 ชั่วโมง เพื่อพิสูจน์ว่าเขาจะรอดพ้นข้อกล่าวหา หรือต้องตกเป็นเหยื่อของ “ระบบที่สมบูรณ์แบบ” ที่เขาร่วมสร้างขึ้นมา นี่คือเรื่องราวแอ็คชั่นมันสุดขั้วระทึกที่ประสบความสำเร็จชนิดถล่มทลาย “มันตอกย้ำว่าทำไมเราถึงต้องดูภาพยนตร์เรื่องนี้เป็น เรื่องแรก” (โรเจอร์ อีเบิร์ท จาก ชิคาโก้ ซัน ไทม์ส)

Complete name : [MINI Super-HQ]_Minority.Report.2002.1080p.BluRay.DTS.x264.One2loadup.com.mkv
Format : Matroska
Format version : Version 4
File size : 4.34 GiB
Duration : 2 h 25 min
Overall bit rate mode : Variable
Overall bit rate : 4 277 kb/s
Movie name : [MINI Super-HQ]_Minority.Report.2002.1080p.BluRay.DTS.x264.One2loadup.com
Encoded date : UTC 2010-02-22 21:41:31
Writing application : mkvmerge v5.9.0 (‘On The Loose’) built on Dec 9 2012 15:37:01
Writing library : libebml v1.3.0 + libmatroska v1.4.0

Video
ID : 1
Format : AVC
Format/Info : Advanced Video Codec
Format profile : [email protected]
Format settings : CABAC / 5 Ref Frames
Format settings, CABAC : Yes
Format settings, ReFrames : 5 frames
Codec ID : V_MPEG4/ISO/AVC
Duration : 2 h 25 min
Bit rate mode : Variable
Bit rate : 3 100 kb/s
Maximum bit rate : 100.0 Mb/s
Width : 1 920 pixels
Height : 808 pixels
Display aspect ratio : 2.40:1
Frame rate mode : Constant
Frame rate : 23.976 FPS
Color space : YUV
Chroma subsampling : 4:2:0
Bit depth : 8 bits
Scan type : Progressive
Bits/(Pixel*Frame) : 0.083
Stream size : 3.10 GiB (71%)
Title : [MINI Super-HQ]_Minority.Report.2002.1080p.BluRay.DTS.x264.One2loadup.com
Writing library : x264 core 130 r2273 b3065e6
Encoding settings : cabac=1 / ref=5 / deblock=1:0:0 / analyse=0x3:0x113 / me=umh / subme=8 / psy=1 / psy_rd=1.00:0.15 / mixed_ref=1 / me_range=16 / chroma_me=1 / trellis=1 / 8x8dct=1 / cqm=0 / deadzone=21,11 / fast_pskip=1 / chroma_qp_offset=-3 / threads=16 / lookahead_threads=2 / sliced_threads=0 / nr=0 / decimate=1 / interlaced=0 / bluray_compat=0 / constrained_intra=0 / bframes=3 / b_pyramid=2 / b_adapt=2 / b_bias=0 / direct=3 / weightb=1 / open_gop=0 / weightp=2 / keyint=250 / keyint_min=23 / scenecut=40 / intra_refresh=0 / rc_lookahead=50 / rc=2pass / mbtree=1 / bitrate=3100 / ratetol=1.0 / qcomp=0.60 / qpmin=0 / qpmax=69 / qpstep=4 / cplxblur=20.0 / qblur=0.5 / vbv_maxrate=99999 / vbv_bufsize=99999 / nal_hrd=vbr / ip_ratio=1.40 / aq=1:1.00
Language : English
Default : Yes
Forced : No

Audio #1
ID : 2
Format : AC-3
Format/Info : Audio Coding 3
Commercial name : Dolby Digital
Codec ID : A_AC3
Duration : 2 h 25 min
Bit rate mode : Constant
Bit rate : 384 kb/s
Channel(s) : 6 channels
Channel layout : L R C LFE Ls Rs
Sampling rate : 48.0 kHz
Frame rate : 31.250 FPS (1536 SPF)
Bit depth : 16 bits
Compression mode : Lossy
Stream size : 399 MiB (9%)
Title : [THAI AC3 FROM DVD MASTER]
Language : Thai
Service kind : Complete Main
Default : Yes
Forced : No

Audio #2
ID : 3
Format : DTS
Format/Info : Digital Theater Systems
Codec ID : A_DTS
Duration : 2 h 25 min
Bit rate mode : Constant
Bit rate : 755 kb/s
Channel(s) : 6 channels
Channel layout : C L R Ls Rs LFE
Sampling rate : 48.0 kHz
Frame rate : 93.750 FPS (512 SPF)
Bit depth : 24 bits
Compression mode : Lossy
Stream size : 784 MiB (18%)
Title : eng dts
Language : English
Default : No
Forced : No

Text #1
ID : 4
Format : VobSub
Codec ID : S_VOBSUB
Codec ID/Info : Picture based subtitle format used on DVDs
Title : [SUB THAI 480P FROM BLU-RAY]
Language : Thai
Default : No
Forced : No

Text #2
ID : 5
Format : VobSub
Codec ID : S_VOBSUB
Codec ID/Info : Picture based subtitle format used on DVDs
Title : [SUB THAI 1080P FROM BLU-RAY]
Language : Thai
Default : No
Forced : No

Text #3
ID : 6
Format : PGS
Codec ID : S_HDMV/PGS
Codec ID/Info : Picture based subtitle format used on BDs/HD-DVDs
Title : [SUB THAI PGS FROM BLU-RAY]
Language : Thai
Default : No
Forced : No

Text #4
ID : 7
Format : UTF-8
Codec ID : S_TEXT/UTF8
Codec ID/Info : UTF-8 Plain Text
Title : eng srt
Language : English
Default : No
Forced : No

DOWNLOAD


PART01 |||| PART02 |||| PART03 |||| PART04 |||| PART05

PART01 |||| PART02 |||| PART03 |||| PART04 |||| PART05

PART01 |||| PART02 |||| PART03 |||| PART04 |||| PART05

PART01 |||| PART02 |||| PART03 |||| PART04 |||| PART05


1 Comment
  1. Adisorn Joochang
    Adisorn Joochang says

    ขอบคุณครับ

Leave A Reply

Your email address will not be published.

%d bloggers like this: