โหลดหนัง HD MINI-HD SUPER-HQ Full-HD 1080p VIP Master Zoom ซูม หนังใหม่ ออนไลน์ มาสเตอร์ ไทย จีน ฝรั่ง การ์ตูน

[MINI Super-HQ] Minions (2015) มินเนี่ยน [1080p] [พากย์ไทย 5.1 + อังกฤษ 5.1] [บรรยายไทย + อังกฤษ] [เสียงไทย + ซับไทย]

0

Minions (2015) มินเนี่ยน

โหลดหนัง Minions (2015) มินเนี่ยน

เรื่องย่อ Minions (2015) มินเนี่ยน

เรื่องราวของเจ้ามินเนี่ยน เริ่มต้นที่รุ่งอรุณแห่งกาลเวลา … มินเนี่ยน เป็นสิ่งมีชีวิตเซลล์เดียวสีเหลืองที่ได้ผ่านการวิวัฒนาการและทำหน้าที่รับใช้บรรดาเจ้านายวายร้ายแสบขั้นเทพ  พวกมินเนี่ยนที่ล้มเหลวตลอดกาลในการรักษาชีวิตเจ้านายของตัวเองเอาไว้ นับจาก ที.เร็กซ์ จวบจนถึงนโปเลียน พวกมันพบว่าตัวเองไร้เจ้านายและจมอยู่ในความหดหู่ แต่เมื่อมินเนี่ยนตัวหนึ่งนามว่า เควิน มีแผนการและได้ร่วมมือกับสตวร์ทจอมเกรียน และบ็อบน้อยผู้น่ารัก ในการออกผจญภัยในโลกกว้างเพื่อหาเจ้านายวายร้ายคนใหม่สำหรับมันและเพื่อนพ้อง ทั้งสามได้ออกผจญภัยสุดระทึกจนไปพบกับผู้ที่อาจจะเป็นเจ้านายใหม่อย่าง สการ์เล็ต โอเวอร์คิล (แซนดรา บุลล็อค) จอมวายร้ายหญิงคนแรกของโลก พวกมันเดินทางจากทวีปเยือกแข็งแอนตาร์กติกามายังนิวยอร์กซิตี้ในยุค 60’s และไปลงเอยอยู่ในลอนดอน ที่ซึ่งพวกมัน จะต้องเผชิญหน้ากับความท้าทายที่ยิ่งใหญ่ที่สุดจนถึงตอนนี้ นั่นคือการปกป้องเหล่า มินเนี่ยน…จากการถูกกำจัด!

Complete name : [MINI Super-HQ]_Minions.2015.1080p.AC3.x264.One2loadup.com.mkv
Format : Matroska
Format version : Version 4 / Version 2
File size : 3.97 GiB
Duration : 1 h 30 min
Overall bit rate : 6 251 kb/s
Movie name : [MINI Super-HQ]_Minions.2015.1080p.AC3.x264.One2loadup.com
Encoded date : UTC 2015-10-23 05:34:49
Writing application : mkvmerge v8.1.0 (‘Psychedelic Postcard’) 32bit
Writing library : libebml v1.3.1 + libmatroska v1.4.2
Cover : Yes
Attachments : cover_land.png / cover.png

Video
ID : 1
Format : AVC
Format/Info : Advanced Video Codec
Format profile : [email protected]
Format settings : CABAC / 4 Ref Frames
Format settings, CABAC : Yes
Format settings, ReFrames : 4 frames
Codec ID : V_MPEG4/ISO/AVC
Duration : 1 h 30 min
Bit rate : 4 883 kb/s
Width : 1 920 pixels
Height : 1 032 pixels
Display aspect ratio : 1.85:1
Frame rate mode : Constant
Frame rate : 23.976 (24000/1001) FPS
Color space : YUV
Chroma subsampling : 4:2:0
Bit depth : 8 bits
Scan type : Progressive
Bits/(Pixel*Frame) : 0.103
Stream size : 3.08 GiB (78%)
Title : [MINI Super-HQ]_Minions.2015.1080p.AC3.x264.One2loadup.com
Writing library : x264 core 146 r2538 121396c
Encoding settings : cabac=1 / ref=4 / deblock=1:-3:-3 / analyse=0x3:0x113 / me=umh / subme=11 / psy=1 / psy_rd=1.00:0.00 / mixed_ref=1 / me_range=64 / chroma_me=1 / trellis=2 / 8x8dct=1 / cqm=0 / deadzone=21,11 / fast_pskip=0 / chroma_qp_offset=-2 / threads=6 / lookahead_threads=1 / sliced_threads=0 / nr=0 / decimate=1 / interlaced=0 / bluray_compat=0 / constrained_intra=0 / bframes=4 / b_pyramid=2 / b_adapt=2 / b_bias=0 / direct=3 / weightb=1 / open_gop=0 / weightp=2 / keyint=250 / keyint_min=23 / scenecut=40 / intra_refresh=0 / rc_lookahead=120 / rc=2pass / mbtree=1 / bitrate=4883 / ratetol=1.0 / qcomp=0.60 / qpmin=0 / qpmax=69 / qpstep=4 / cplxblur=20.0 / qblur=0.5 / vbv_maxrate=99999 / vbv_bufsize=99999 / nal_hrd=none / filler=0 / ip_ratio=1.40 / aq=1:1.00
Language : English
Default : Yes
Forced : No

Audio #1
ID : 2
Format : AC-3
Format/Info : Audio Coding 3
Codec ID : A_AC3
Duration : 1 h 30 min
Bit rate mode : Constant
Bit rate : 640 kb/s
Channel(s) : 6 channels
Channel positions : Front: L C R, Side: L R, LFE
Sampling rate : 48.0 kHz
Frame rate : 31.250 FPS (1536 SPF)
Bit depth : 16 bits
Compression mode : Lossy
Stream size : 416 MiB (10%)
Title : AC3 BD MASTER
Language : Thai
Service kind : Complete Main
Default : Yes
Forced : Yes

Audio #2
ID : 3
Format : AC-3
Format/Info : Audio Coding 3
Codec ID : A_AC3
Duration : 1 h 30 min
Bit rate mode : Constant
Bit rate : 640 kb/s
Channel(s) : 6 channels
Channel positions : Front: L C R, Side: L R, LFE
Sampling rate : 48.0 kHz
Frame rate : 31.250 FPS (1536 SPF)
Bit depth : 16 bits
Compression mode : Lossy
Stream size : 416 MiB (10%)
Title : AC3 BD MASTER
Language : English
Service kind : Complete Main
Default : No
Forced : No

Text #1
ID : 4
Format : VobSub
Codec ID : S_VOBSUB
Codec ID/Info : Picture based subtitle format used on DVDs
Title : 1080P BD MASTER
Language : Thai
Default : Yes
Forced : Yes

Text #2
ID : 5
Format : VobSub
Codec ID : S_VOBSUB
Codec ID/Info : Picture based subtitle format used on DVDs
Title : 1080P YELLOW
Language : Thai
Default : No
Forced : No

Text #3
ID : 6
Format : VobSub
Codec ID : S_VOBSUB
Codec ID/Info : Picture based subtitle format used on DVDs
Title : 480P
Language : Thai
Default : No
Forced : No

Text #4
ID : 7
Format : VobSub
Codec ID : S_VOBSUB
Codec ID/Info : Picture based subtitle format used on DVDs
Title : 1080P
Language : English
Default : No
Forced : No

Text #5
ID : 8
Format : PGS
Codec ID : S_HDMV/PGS
Codec ID/Info : Picture based subtitle format used on BDs/HD-DVDs
Title : BD MASTER
Language : Thai
Default : No
Forced : No

Text #6
ID : 9
Format : PGS
Codec ID : S_HDMV/PGS
Codec ID/Info : Picture based subtitle format used on BDs/HD-DVDs
Title : BD MASTER
Language : English
Default : No
Forced : No

Menu
00:00:00.000 : en:Chapter 01
00:05:39.839 : en:Chapter 02
00:11:28.938 : en:Chapter 03
00:16:55.139 : en:Chapter 04
00:22:28.430 : en:Chapter 05
00:26:59.034 : en:Chapter 06
00:32:54.639 : en:Chapter 07
00:37:28.871 : en:Chapter 08
00:40:58.831 : en:Chapter 09
00:45:29.309 : en:Chapter 10
00:49:24.086 : en:Chapter 11
00:53:43.053 : en:Chapter 12
00:57:04.921 : en:Chapter 13
01:01:36.943 : en:Chapter 14
01:05:54.700 : en:Chapter 15
01:07:55.237 : en:Chapter 16
01:11:19.149 : en:Chapter 17
01:15:32.653 : en:Chapter 18
01:21:12.826 : en:Chapter 19
01:28:24.757 : en:Chapter 20
01:30:57.743 : en:Chapter 21

DOWNLOAD


PART01 |||| PART02 |||| PART03 |||| PART04

PART01 |||| PART02 |||| PART03 |||| PART04

PART01 |||| PART02 |||| PART03 |||| PART04

PART01 |||| PART02 |||| PART03 |||| PART04


Leave A Reply

Your email address will not be published.

%d bloggers like this: