[MINI Super-HQ] Mazinger Z: Infinity (2017) สงครามหุ่นเหล็กพิฆาต [1080p] [พากย์ไทย 2.0 + เสียงญี่ปุ่น DTS] [บรรยายไทย + อังกฤษ] [เสียงไทย + ซับไทย] [OPENLOAD]

0

Mazinger Z: Infinity (2017) สงครามหุ่นเหล็กพิฆาต

โหลดหนัง Mazinger Z: Infinity (2017) สงครามหุ่นเหล็กพิฆาต

เรื่องย่อ Mazinger Z: Infinity (2017) สงครามหุ่นเหล็กพิฆาต

Mazinger Z หรือในชื่อภาษาญี่ปุ่นคือ?????Z เป็นอนิเมชั่นแนวซูเปอร์โรบ๊อตที่สร้างมาจากผลงานต้น ฉบับมังงะที่แต่งโดยอ. Go Nagai เริ่มเขียนเมื่อปี 1972 ถึงปี 1974 เรียกได้ว่าเป็น “ยุคบุกเบิก” ของหุ่นแนวอภินิหารงซูเปอร์โรบ๊อตที่ปรากฏอยู่ในวงการอนิเมชั่นและวีดีโอเกมต่างๆ มากมาย สำหรับในภาคของอนิเมชั่นนั้น… อำนวยการสร้างโดยทาง Toei Animation ฉายครั้งแรกเมื่อวันที่ 3 ธันวาคม 1972 จนถึงวันที่ 1 กันยายน 1974 รวมจำนวนตอนทั้งสิ้น 92 ตอนจบภาค

เรื่องราวฉบับดั้งเดิม จะเล่าถึง “ด๊อกเตอร์คาบูโตะ จูโซ” นักวิทยาศาสตร์ที่ได้คิดค้นและสร้างหุ่นยักษ์จากแร่โลหะเจแปนเนี่ยมที่ขุดพบที่ภูเขาไฟฟูจิ ซึ่งแร่ตัวนี้มีคุณสมบัติในการกำเนิดพลังงานแสงและแข ็งแกร่งมากกว่าแร่โลหะใดๆ บนโลกนี้ โดยหุ่นตัวนี้ที่ด๊อกเตอร์คาบูโตะสร้างขึ้นมีชื่อว่า Mazinger Z (มาชินก้า Z) หุ่นรบกำลังสูงที่มีพลังทำลายล้างขั้นสุดด้วยพลังงานโฟตรอน เป็นได้ทั้งเทพเจ้า และปีศาจ ใช้ในการเข้าต่อสู้กับเหล่าหุ่นยักษ์ของฝ่าย “ด๊อกเตอร์เฮล” นักวิทยาศาสตร์ผู้ชั่วร้ายหมายจะครองโลก

Complete name : [MINI Super-HQ]_Mazinger.Z.Infinity.2017.1080p.BluRay.DTS.x264.One2loadup.com.mkv
Format : Matroska
Format version : Version 4
File size : 5.71 GiB
Duration : 1 h 34 min
Overall bit rate : 8 614 kb/s
Movie name : [MINI Super-HQ]_Mazinger.Z.Infinity.2017.1080p.BluRay.DTS.x264.One2loadup.com
Encoded date : UTC 2018-11-07 14:24:23
Writing application : mkvmerge v20.0.0 (‘I Am The Sun’) 64-bit
Writing library : libebml v1.3.5 + libmatroska v1.4.8

Video
ID : 1
Format : AVC
Format/Info : Advanced Video Codec
Format profile : [email protected]
Format settings : CABAC / 4 Ref Frames
Format settings, CABAC : Yes
Format settings, ReFrames : 4 frames
Codec ID : V_MPEG4/ISO/AVC
Duration : 1 h 34 min
Bit rate : 6 865 kb/s
Width : 1 920 pixels
Height : 1 080 pixels
Display aspect ratio : 16:9
Frame rate mode : Constant
Frame rate : 24.000 FPS
Color space : YUV
Chroma subsampling : 4:2:0
Bit depth : 8 bits
Scan type : Progressive
Bits/(Pixel*Frame) : 0.138
Stream size : 4.55 GiB (80%)
Title : [MINI Super-HQ]_Mazinger.Z.Infinity.2017.1080p.BluRay.DTS.x264.One2loadup.com
Writing library : x264 core 155 r2901 7d0ff22
Encoding settings : cabac=1 / ref=4 / deblock=1:0:0 / analyse=0x3:0x113 / me=umh / subme=8 / psy=1 / psy_rd=1.00:0.00 / mixed_ref=1 / me_range=16 / chroma_me=1 / trellis=1 / 8x8dct=1 / cqm=0 / deadzone=21,11 / fast_pskip=1 / chroma_qp_offset=-2 / threads=24 / lookahead_threads=4 / sliced_threads=0 / nr=0 / decimate=1 / interlaced=0 / bluray_compat=0 / constrained_intra=0 / bframes=3 / b_pyramid=2 / b_adapt=2 / b_bias=0 / direct=3 / weightb=1 / open_gop=0 / weightp=2 / keyint=240 / keyint_min=24 / scenecut=40 / intra_refresh=0 / rc_lookahead=50 / rc=2pass / mbtree=1 / bitrate=6865 / ratetol=1.0 / qcomp=0.60 / qpmin=0 / qpmax=69 / qpstep=4 / cplxblur=20.0 / qblur=0.5 / ip_ratio=1.40 / aq=1:1.00
Language : English
Default : Yes
Forced : No

Audio #1
ID : 2
Format : DTS
Format/Info : Digital Theater Systems
Codec ID : A_DTS
Duration : 1 h 34 min
Bit rate mode : Constant
Bit rate : 1 509 kb/s
Channel(s) : 6 channels
Channel layout : C L R Ls Rs LFE
Sampling rate : 48.0 kHz
Frame rate : 93.750 FPS (512 SPF)
Bit depth : 24 bits
Compression mode : Lossy
Stream size : 1.00 GiB (18%)
Title : Japanese / DTS
Language : Japanese
Default : Yes
Forced : Yes

Audio #2
ID : 3
Format : AC-3
Format/Info : Audio Coding 3
Commercial name : Dolby Digital
Codec ID : A_AC3
Duration : 1 h 34 min
Bit rate mode : Constant
Bit rate : 192 kb/s
Channel(s) : 2 channels
Channel layout : L R
Sampling rate : 48.0 kHz
Frame rate : 31.250 FPS (1536 SPF)
Bit depth : 16 bits
Compression mode : Lossy
Stream size : 130 MiB (2%)
Title : Thai / ac-3
Language : Thai
Service kind : Complete Main
Default : No
Forced : No

Text #1
ID : 4
Format : PGS
Muxing mode : zlib
Codec ID : S_HDMV/PGS
Codec ID/Info : Picture based subtitle format used on BDs/HD-DVDs
Duration : 1 h 30 min
Bit rate : 45.7 kb/s
Count of elements : 2672
Stream size : 29.5 MiB (1%)
Title : Thai / PGS dillenia
Language : Thai
Default : Yes
Forced : Yes

Text #2
ID : 5
Format : PGS
Muxing mode : zlib
Codec ID : S_HDMV/PGS
Codec ID/Info : Picture based subtitle format used on BDs/HD-DVDs
Duration : 1 h 30 min
Bit rate : 47.8 kb/s
Count of elements : 2672
Stream size : 30.9 MiB (1%)
Title : Thai / PGS angsana
Language : Thai
Default : No
Forced : No

DOWNLOAD


PART01 |||| PART02 |||| PART03 |||| PART04 |||| PART05 |||| PART06

PART01 |||| PART02 |||| PART03 |||| PART04 |||| PART05 |||| PART06

PART01 |||| PART02 |||| PART03 |||| PART04 |||| PART05 |||| PART06

PART01 |||| PART02 |||| PART03 |||| PART04 |||| PART05 |||| PART06


Leave A Reply

Your email address will not be published.

%d bloggers like this: