โหลดหนัง HD MINI-HD SUPER-HQ Full-HD 1080p VIP Master Zoom ซูม หนังใหม่ ออนไลน์ มาสเตอร์ ไทย จีน ฝรั่ง การ์ตูน

[MINI Super-HQ] Lone Survivor (2013) ปฏิบัติการพิฆาตสมรภูมิเดือด [1080p] [พากย์ไทย 5.1 + เสียงอังกฤษ DTS] [บรรยายไทย + อังกฤษ] [เสียงไทย + ซับไทย]

0

โหลดหนัง  Lone Survivor (2013) ปฏิบัติการพิฆาตสมรภูมิเดือด

เรื่องย่อ Lone Survivor (2013) ปฏิบัติการพิฆาตสมรภูมิเดือด

เรื่องราวของทีมลาดตระเวนของหน่วยซีลทีม 10 ประกอบด้วยเรือเอกไมเคิล เมอร์ฟี่ (Taylor Kitsch) หัวหน้าทีม, พันจ่าโทแดนนี่ ไดแอทซ์ (Emile Hirsch), พันจ่าโทแมทธิว แอกเซลสัน(Ben Foster) และจ่าโทเสนารักษ์มาร์คัส ลูทเทรล (Mark Wahlberg) ได้รับคำสั่งให้ลาดตระเวนสอดแนมบริเวณหุบเขา Shuryek Valley ระหว่างการลาดตระเวนได้พบกับเด็กเลี้ยงแพะ และดูไม่เป็นพิษเป็นภัยอะไรจึงปล่อยตัวไป ก่อนที่เวลาต่อมาทีมลาดตระเวนจะพบว่าตัวเองถูกหน่วยรบกลุ่มตาลีบัน ล้อมพื้นที่เอาไว้หมดแล้ว ทางเดียวที่จะรอดไปได้คือฝ่าออกไป โดยหัวหน้าทีมได้วิทยุขอกำลังเสริม แต่วิทยุขัดข้องใช้การไม่ได้ จึงต้องใช้โทรศัพท์ผ่านดาวเทียมโทรกลับฐาน เพื่อขอกำลังเสริม หน่วยซีลทีม 10 จึงร่วมมือกับหน่วยปฏิบัติการพิเศษเข้าช่วยเหลือโดยจัดทีมขึ้นบินด้วยเฮลิคอปเตอร์ชีนุค แบล๊คฮอว์ค โดยมีอาปาเช่คุ้มกัน เพื่อเข้าสู่พื้นที่ปะทะและช่วยเหลือหน่วยลาดตระเวนที่ความหวังในการเอาชีวิตรอดเหลือน้อยเต็มที!!

Complete name : [MINI Super-HQ]_Lone.Survivor.2013.1080p.BRRip.DTS.x264.One2loadup.com.mkv
Format : Matroska
Format version : Version 4
File size : 4.07 GiB
Duration : 2 h 1 min
Overall bit rate : 4 789 kb/s
Movie name : [MINI Super-HQ]_Lone.Survivor.2013.1080p.BRRip.DTS.One2loadup.com
Encoded date : UTC 2018-01-10 06:35:06
Writing application : mkvmerge v18.0.0 (‘Apricity’) 64-bit
Writing library : libebml v1.3.5 + libmatroska v1.4.8
Cover : Yes
Attachments : cover.jpeg

Video
ID : 1
Format : AVC
Format/Info : Advanced Video Codec
Format profile : [email protected]
Format settings : CABAC / 5 Ref Frames
Format settings, CABAC : Yes
Format settings, ReFrames : 5 frames
Codec ID : V_MPEG4/ISO/AVC
Duration : 2 h 1 min
Bit rate : 3 209 kb/s
Width : 1 920 pixels
Height : 800 pixels
Display aspect ratio : 2.40:1
Frame rate mode : Constant
Frame rate : 23.976 (24000/1001) FPS
Color space : YUV
Chroma subsampling : 4:2:0
Bit depth : 8 bits
Scan type : Progressive
Bits/(Pixel*Frame) : 0.087
Stream size : 2.72 GiB (67%)
Title : [MINI Super-HQ]_Lone.Survivor.2013.1080p.BRRip.DTS.One2loadup.com
Writing library : x264 core 142 r2431 ac76440
Encoding settings : cabac=1 / ref=5 / deblock=1:1:1 / analyse=0x3:0x113 / me=umh / subme=9 / psy=1 / psy_rd=1.00:0.15 / mixed_ref=1 / me_range=38 / chroma_me=1 / trellis=2 / 8x8dct=1 / cqm=0 / deadzone=21,11 / fast_pskip=0 / chroma_qp_offset=0 / threads=12 / lookahead_threads=1 / sliced_threads=0 / nr=0 / decimate=1 / interlaced=0 / bluray_compat=0 / constrained_intra=0 / bframes=3 / b_pyramid=2 / b_adapt=2 / b_bias=0 / direct=3 / weightb=1 / open_gop=0 / weightp=2 / keyint=240 / keyint_min=23 / scenecut=40 / intra_refresh=0 / rc_lookahead=60 / rc=2pass / mbtree=1 / bitrate=3209 / ratetol=1.0 / qcomp=0.60 / qpmin=0 / qpmax=69 / qpstep=4 / cplxblur=20.0 / qblur=0.5 / vbv_maxrate=28250 / vbv_bufsize=28250 / nal_hrd=none / filler=0 / ip_ratio=1.40 / aq=1:1.00
Language : English
Default : Yes
Forced : No
Color range : Limited
Color primaries : BT.709
Transfer characteristics : BT.709
Matrix coefficients : BT.709

Audio #1
ID : 2
Format : AC-3
Format/Info : Audio Coding 3
Commercial name : Dolby Digital
Codec ID : A_AC3
Duration : 2 h 1 min
Bit rate mode : Constant
Bit rate : 384 kb/s
Channel(s) : 6 channels
Channel layout : L R C LFE Ls Rs
Sampling rate : 48.0 kHz
Frame rate : 31.250 FPS (1536 SPF)
Bit depth : 16 bits
Compression mode : Lossy
Delay relative to video : -83 ms
Stream size : 334 MiB (8%)
Title : Thai AC3 5.1 BluRay Master
Language : Thai
Service kind : Complete Main
Default : Yes
Forced : Yes

Audio #2
ID : 3
Format : DTS
Format/Info : Digital Theater Systems
Codec ID : A_DTS
Duration : 2 h 1 min
Bit rate mode : Constant
Bit rate : 755 kb/s
Channel(s) : 6 channels
Channel layout : C L R Ls Rs LFE
Sampling rate : 48.0 kHz
Frame rate : 93.750 FPS (512 SPF)
Bit depth : 24 bits
Compression mode : Lossy
Delay relative to video : -83 ms
Stream size : 655 MiB (16%)
Title : Eng DTS 5.1
Language : English
Default : No
Forced : No

Audio #3
ID : 4
Format : AAC LC
Format/Info : Advanced Audio Codec Low Complexity
Codec ID : A_AAC-2
Duration : 2 h 1 min
Bit rate : 328 kb/s
Channel(s) : 6 channels
Channel layout : C L R Ls Rs LFE
Sampling rate : 48.0 kHz
Frame rate : 46.875 FPS (1024 SPF)
Compression mode : Lossy
Delay relative to video : -83 ms
Stream size : 284 MiB (7%)
Title : Eng AAC 2.0
Language : English
Default : No
Forced : No

Text #1
ID : 5
Format : PGS
Muxing mode : zlib
Codec ID : S_HDMV/PGS
Codec ID/Info : Picture based subtitle format used on BDs/HD-DVDs
Duration : 2 h 0 min
Bit rate : 25.8 kb/s
Count of elements : 2053
Stream size : 22.2 MiB (1%)
Title : Eng
Language : English
Default : No
Forced : No

Text #2
ID : 6
Format : PGS
Muxing mode : zlib
Codec ID : S_HDMV/PGS
Codec ID/Info : Picture based subtitle format used on BDs/HD-DVDs
Duration : 1 h 58 min
Bit rate : 20.6 kb/s
Count of elements : 2036
Stream size : 17.4 MiB (0%)
Title : Thai PGS Tahoma
Language : Thai
Default : No
Forced : No

Text #3
ID : 7
Format : PGS
Muxing mode : zlib
Codec ID : S_HDMV/PGS
Codec ID/Info : Picture based subtitle format used on BDs/HD-DVDs
Duration : 1 h 58 min
Bit rate : 20.6 kb/s
Count of elements : 2036
Stream size : 17.4 MiB (0%)
Title : Thai PGS Tahoma LOW
Language : Thai
Default : No
Forced : No

Text #4
ID : 8
Format : PGS
Muxing mode : zlib
Codec ID : S_HDMV/PGS
Codec ID/Info : Picture based subtitle format used on BDs/HD-DVDs
Duration : 1 h 58 min
Bit rate : 22.4 kb/s
Count of elements : 2036
Stream size : 18.9 MiB (0%)
Title : Thai PGS Freesia
Language : Thai
Default : No
Forced : No

Text #5
ID : 9
Format : PGS
Muxing mode : zlib
Codec ID : S_HDMV/PGS
Codec ID/Info : Picture based subtitle format used on BDs/HD-DVDs
Duration : 1 h 58 min
Bit rate : 22.4 kb/s
Count of elements : 2036
Stream size : 18.9 MiB (0%)
Title : Thai PGS Freesia LOW
Language : Thai
Default : No
Forced : No

Text #6
ID : 10
Format : PGS
Muxing mode : zlib
Codec ID : S_HDMV/PGS
Codec ID/Info : Picture based subtitle format used on BDs/HD-DVDs
Duration : 1 h 58 min
Bit rate : 23.3 kb/s
Count of elements : 2036
Stream size : 19.7 MiB (0%)
Title : Thai PGS Cordia
Language : Thai
Default : No
Forced : No

Text #7
ID : 11
Format : PGS
Muxing mode : zlib
Codec ID : S_HDMV/PGS
Codec ID/Info : Picture based subtitle format used on BDs/HD-DVDs
Duration : 1 h 58 min
Bit rate : 23.3 kb/s
Count of elements : 2036
Stream size : 19.7 MiB (0%)
Title : Thai PGS Cordia LOW
Language : Thai
Default : No
Forced : No

Text #8
ID : 12
Format : PGS
Muxing mode : zlib
Codec ID : S_HDMV/PGS
Codec ID/Info : Picture based subtitle format used on BDs/HD-DVDs
Duration : 1 h 58 min
Bit rate : 19.8 kb/s
Count of elements : 2036
Stream size : 16.7 MiB (0%)
Title : Thai PGS Arial
Language : Thai
Default : No
Forced : No

Text #9
ID : 13
Format : PGS
Muxing mode : zlib
Codec ID : S_HDMV/PGS
Codec ID/Info : Picture based subtitle format used on BDs/HD-DVDs
Duration : 1 h 58 min
Bit rate : 19.8 kb/s
Count of elements : 2036
Stream size : 16.7 MiB (0%)
Title : Thai PGS Arial LOW
Language : Thai
Default : No
Forced : No

Text #10
ID : 14
Format : PGS
Muxing mode : zlib
Codec ID : S_HDMV/PGS
Codec ID/Info : Picture based subtitle format used on BDs/HD-DVDs
Duration : 1 h 58 min
Bit rate : 23.5 kb/s
Count of elements : 2036
Stream size : 19.9 MiB (0%)
Title : Thai PGS Angsana
Language : Thai
Default : Yes
Forced : Yes

Text #11
ID : 15
Format : PGS
Muxing mode : zlib
Codec ID : S_HDMV/PGS
Codec ID/Info : Picture based subtitle format used on BDs/HD-DVDs
Duration : 1 h 58 min
Bit rate : 23.5 kb/s
Count of elements : 2036
Stream size : 19.9 MiB (0%)
Title : Thai PGS Angsana LOW
Language : Thai
Default : No
Forced : No

Text #12
ID : 16
Format : VobSub
Muxing mode : zlib
Codec ID : S_VOBSUB
Codec ID/Info : Picture based subtitle format used on DVDs
Duration : 1 h 58 min
Bit rate : 5 193 b/s
Count of elements : 1018
Stream size : 4.39 MiB (0%)
Title : Thai 1080p
Language : Thai
Default : No
Forced : No

Text #13
ID : 17
Format : VobSub
Muxing mode : zlib
Codec ID : S_VOBSUB
Codec ID/Info : Picture based subtitle format used on DVDs
Duration : 1 h 58 min
Bit rate : 5 193 b/s
Count of elements : 1018
Stream size : 4.39 MiB (0%)
Title : Thai 1080p LOW
Language : Thai
Default : No
Forced : No

Text #14
ID : 18
Format : VobSub
Muxing mode : zlib
Codec ID : S_VOBSUB
Codec ID/Info : Picture based subtitle format used on DVDs
Duration : 1 h 58 min
Bit rate : 1 564 b/s
Count of elements : 1018
Stream size : 1.32 MiB (0%)
Title : Thai 480p
Language : Thai
Default : No
Forced : No

Text #15
ID : 19
Format : VobSub
Muxing mode : zlib
Codec ID : S_VOBSUB
Codec ID/Info : Picture based subtitle format used on DVDs
Duration : 1 h 58 min
Bit rate : 1 564 b/s
Count of elements : 1018
Stream size : 1.32 MiB (0%)
Title : Thai 480p LOW
Language : Thai
Default : No
Forced : No

DOWNLOAD


PART01 |||| PART02 |||| PART03 |||| PART04 |||| PART05

PART01 |||| PART02 |||| PART03 |||| PART04 |||| PART05

PART01 |||| PART02 |||| PART03 |||| PART04 |||| PART05

PART01 |||| PART02 |||| PART03 |||| PART04 |||| PART05


Leave A Reply

Your email address will not be published.

%d bloggers like this: