[MINI Super-HQ] King Naresuan (2007) ตำนานสมเด็จพระนเรศวรมหาราช ภาค 1 องค์ประกันหงสา [1080p] [พากย์ไทย 5.1] [บรรยายไทย + อังกฤษ] [เสียงไทย + ซับอังไทย] [OPENLOAD]

0

โหลดหนัง  King Naresuan (2007) ตำนานสมเด็จพระนเรศวรมหาราช ภาค 1 องค์ประกันหงสา

เรื่องย่อ King Naresuan (2007) ตำนานสมเด็จพระนเรศวรมหาราช ภาค 1 องค์ประกันหงสา

พุทธศักราช 2106 พระเจ้าหงสาวดีบุเรงนอง (สมภพ เบญจาทิกุล) ทรงกรีฑาทัพเข้าตีราชอาณาจักรอยุธยาทางด่านระแหงแขวงเมืองตาก ทัพพม่ารามัญซึ่งมีรี้พลเหลือคณานับได้เข้ายึดครองหัวเมืองฝ่ายเหนือของราชอาณาจักรอยุธยาอันมีเมืองพิษณุโลกเป็นประหนึ่งเมืองราชธานีได้เป็นผลสำเร็จ

ครั้งนั้น สมเด็จพระมหาธรรมราชา (ฉัตรชัย เปล่งพานิช) พระราชบิดาของสมเด็จพระนเรศวรหรือพระองค์ดำ (ปรัชฌา สนั่นวัฒนานนท์) ซึ่งเป็นเจ้าแผ่นดินครองเมืองพิษณุโลก จำต้องยอมอ่อนน้อมต่อพระเจ้าบุเรงนองเพื่อรักษาไว้ซึ่งชีวิตอาณาประชาราษฎร์มิให้ต้องมีภยันตราย และจำต้องยอมร่วมกระบวนทัพพม่าเข้าตีกรุงศรีอยุธยา

ศึกครั้งนั้นสมเด็จพระมหาจักรพรรดิ (ศรัณยู วงษ์กระจ่าง) เจ้าแผ่นดินอยุธยาทรงยอมเจรจาหย่าศึกกับพม่ารามัญ และยอมถวายช้างเผือก 4 เชือก ทั้งให้สมเด็จพระราเมศวรราชโอรส โดยเสด็จพระเจ้าบุเรงนองไปประทับยังนครหงสาวดีตามพระประสงค์ของกษัตริย์พม่า ข้างสมเด็จพระมหาธรรมราชาซึ่งได้ยอมอ่อนน้อมต่อพระเจ้าบุเรงนอง ก็ได้ถวายสมเด็จพระนเรศวรราชโอรสองค์โตให้ไปเป็นองค์ประกันประทับยังหงสาประเทศเฉกเช่นกัน กาลครั้งนั้นพระองค์ทรงมีพระชนมายุได้เพียง 9 ชันษา

Complete name : [MINI Super-HQ]_1.King.Naresuan.2007.1080p.BrRip.AC3.x264.One2loadup.com.mkv
Format : Matroska
Format version : Version 4
File size : 3.28 GiB
Duration : 2 h 41 min
Overall bit rate : 2 914 kb/s
Movie name : [MINI Super-HQ]_1.King.Naresuan.2007.1080p.BrRip.AC3.x264.One2loadup.com
Encoded date : UTC 2014-05-11 12:29:55
Writing application : mkvmerge v6.8.0 (‘Theme for Great Cities’) 32bit built on Mar 2 2014 21:27:07
Writing library : libebml v1.3.0 + libmatroska v1.4.1

Video
ID : 1
Format : AVC
Format/Info : Advanced Video Codec
Format profile : [email protected]
Format settings : CABAC / 3 Ref Frames
Format settings, CABAC : Yes
Format settings, ReFrames : 3 frames
Codec ID : V_MPEG4/ISO/AVC
Duration : 2 h 41 min
Bit rate : 2 344 kb/s
Nominal bit rate : 2 500 kb/s
Width : 1 920 pixels
Height : 1 080 pixels
Display aspect ratio : 16:9
Frame rate mode : Constant
Frame rate : 25.000 FPS
Color space : YUV
Chroma subsampling : 4:2:0
Bit depth : 8 bits
Scan type : Progressive
Bits/(Pixel*Frame) : 0.045
Stream size : 2.64 GiB (80%)
Title : [MINI Super-HQ]_1.King.Naresuan.2007.1080p.BrRip.AC3.x264.One2loadup.com
Writing library : x264 core 116 r2019M 9cc407d
Encoding settings : cabac=1 / ref=3 / deblock=1:0:0 / analyse=0x3:0x133 / me=hex / subme=7 / psy=1 / psy_rd=1.00:0.20 / mixed_ref=1 / me_range=16 / chroma_me=1 / trellis=1 / 8x8dct=1 / cqm=0 / deadzone=21,11 / fast_pskip=1 / chroma_qp_offset=-3 / threads=8 / sliced_threads=0 / nr=0 / decimate=1 / interlaced=0 / bluray_compat=0 / constrained_intra=0 / bframes=3 / b_pyramid=1 / b_adapt=2 / b_bias=0 / direct=3 / weightb=1 / open_gop=0 / weightp=2 / keyint=250 / keyint_min=25 / scenecut=40 / intra_refresh=0 / rc_lookahead=40 / rc=abr / mbtree=1 / bitrate=2500 / ratetol=1.0 / qcomp=0.60 / qpmin=10 / qpmax=51 / qpstep=4 / vbv_maxrate=31250 / vbv_bufsize=62500 / nal_hrd=none / ip_ratio=1.40 / aq=1:1.00
Language : Thai
Default : Yes
Forced : No

Audio #1
ID : 2
Format : AC-3
Format/Info : Audio Coding 3
Commercial name : Dolby Digital
Codec ID : A_AC3
Duration : 2 h 41 min
Bit rate mode : Constant
Bit rate : 384 kb/s
Channel(s) : 6 channels
Channel layout : L R C LFE Ls Rs
Sampling rate : 48.0 kHz
Frame rate : 31.250 FPS (1536 SPF)
Bit depth : 16 bits
Compression mode : Lossy
Stream size : 443 MiB (13%)
Title : TH 5.1
Language : Thai
Service kind : Complete Main
Default : Yes
Forced : No

Audio #2
ID : 3
Format : AC-3
Format/Info : Audio Coding 3
Commercial name : Dolby Digital
Codec ID : A_AC3
Duration : 2 h 41 min
Bit rate mode : Constant
Bit rate : 128 kb/s
Channel(s) : 2 channels
Channel layout : L R
Sampling rate : 48.0 kHz
Frame rate : 31.250 FPS (1536 SPF)
Bit depth : 16 bits
Compression mode : Lossy
Stream size : 148 MiB (4%)
Title : การสนทนาเบื้องหลังการถ่ายทำ
Language : Thai
Service kind : Complete Main
Default : No
Forced : No

Text #1
ID : 4
Format : UTF-8
Codec ID : S_TEXT/UTF8
Codec ID/Info : UTF-8 Plain Text
Title : EN
Language : English
Default : No
Forced : No

Text #2
ID : 5
Format : VobSub
Codec ID : S_VOBSUB
Codec ID/Info : Picture based subtitle format used on DVDs
Title : TH
Language : Thai
Default : No
Forced : No

Text #3
ID : 6
Format : VobSub
Codec ID : S_VOBSUB
Codec ID/Info : Picture based subtitle format used on DVDs
Title : TH คำบรรยายภาษาไทยทดแทนการได้ยิน
Language : Thai
Default : No
Forced : No

DOWNLOAD


PART01 |||| PART02 |||| PART03 |||| PART04

PART01 |||| PART02 |||| PART03 |||| PART04

PART01 |||| PART02 |||| PART03 |||| PART04

PART01 |||| PART02 |||| PART03 |||| PART04


Leave A Reply

Your email address will not be published.

%d bloggers like this: