[MINI Super-HQ] King Naresuan 2 (2007) ตำนานสมเด็จพระนเรศวรมหาราช ภาค 2 ประกาศอิสรภาพ [1080p] [พากย์ไทย 5.1] [บรรยายไทย + อังกฤษ] [เสียงไทย + ซับไทย] [OPENLOAD]

0

โหลดหนัง  King Naresuan 2 (2007) ตำนานสมเด็จพระนเรศวรมหาราช ภาค 2 ประกาศอิสรภาพ

เรื่องย่อ King Naresuan 2 (2007) ตำนานสมเด็จพระนเรศวรมหาราช ภาค 2 ประกาศอิสรภาพ

หลังจากพระเจ้าหงสาวดีบุเรงนอง (สมภพ เบญจาทิกุล) สิ้นพระชนม์ในปีพุทธศักราช 2124 พระเจ้านันทบุเรง (จักรกฤษณ์ อำมะรัตน์) ได้ขึ้นเสวยราชสืบต่อและได้สถาปนามังสามเกียดขึ้นเป็นรัชทายาทครองตำแหน่งมหาอุปราชแห่งราชอาณาจักรหงสาวดี เมื่อแผ่นดินหงสามีอันต้องผลัดมือมาอยู่ในปกครองของพระเจ้านันทบุเรง สัมพันธไมตรีระหว่างอยุธยาและหงสาวดีก็เริ่มสั่นคลอน ด้วยพระเจ้าหงสาวดีพระองค์ใหม่มิได้วางพระทัยในสมเด็จพระนเรศวร (พ.ต. วันชนะ สวัสดี) และสมเด็จพระนเรศวรเองก็หาได้เคารพยำเกรงในบุญบารบีของพระเจ้าแผ่นดินพม่ารามัญเช่นกาลก่อน มิเพียงเท่านั้น สมเด็จพระนเรศวรยังได้ทรงแสดงพระปรีชาสามารถให้เป็นที่ปรากฏครั่นคร้าม ดังคราวนำกำลังทำยุทธนาวีกับพระยาจีนจันตุและศึกเมืองคังเป็นอาทิ พระเจ้านันทบุเรงทรงเกรงว่าสืบไปเบื้องหน้าสมเด็จพระนเรศวรจะเป็นภัยต่อพระ ราชวงศ์แลแผ่นดินหงสาจึงหาสาเหตุวางกลศึกหมายจะปลงพระชนม์สมเด็จพระนเรศวร เสียที่เมืองแครง แต่พระมหาเถรคันฉ่องพระราชครูลอบนำแผนประทุษร้ายนั้นมาแจ้งให้ศิษย์รักได้ รู้ความ สมเด็จพระนเรศวรจึงถือเป็นเหตุประกาศเอกราชตัดสัมพันธ์ไมตรีกับหงสาวดี แลกวาดต้อนครัวมอญไทยข้ามแม่น้ำสะโตงกลับคืนพระนคร

Complete name : [MINI Super-HQ]_2.King.Naresuan.2007.1080p.BrRip.AC3.x264.One2loadup.com.mkv
Format : Matroska
Format version : Version 4
File size : 3.25 GiB
Duration : 2 h 38 min
Overall bit rate : 2 938 kb/s
Movie name : [MINI Super-HQ]_2.King.Naresuan.2007.1080p.BrRip.AC3.x264.One2loadup.com
Encoded date : UTC 2014-05-12 00:00:40
Writing application : mkvmerge v6.8.0 (‘Theme for Great Cities’) 32bit built on Mar 2 2014 21:27:07
Writing library : libebml v1.3.0 + libmatroska v1.4.1

Video
ID : 1
Format : AVC
Format/Info : Advanced Video Codec
Format profile : [email protected]
Format settings : CABAC / 3 Ref Frames
Format settings, CABAC : Yes
Format settings, ReFrames : 3 frames
Codec ID : V_MPEG4/ISO/AVC
Duration : 2 h 38 min
Bit rate : 2 367 kb/s
Nominal bit rate : 2 500 kb/s
Width : 1 920 pixels
Height : 1 080 pixels
Display aspect ratio : 16:9
Frame rate mode : Constant
Frame rate : 25.000 FPS
Color space : YUV
Chroma subsampling : 4:2:0
Bit depth : 8 bits
Scan type : Progressive
Bits/(Pixel*Frame) : 0.046
Stream size : 2.62 GiB (81%)
Title : [MINI Super-HQ]_2.King.Naresuan.2007.1080p.BrRip.AC3.x264.One2loadup.com
Writing library : x264 core 116 r2019M 9cc407d
Encoding settings : cabac=1 / ref=3 / deblock=1:0:0 / analyse=0x3:0x133 / me=hex / subme=7 / psy=1 / psy_rd=1.00:0.20 / mixed_ref=1 / me_range=16 / chroma_me=1 / trellis=1 / 8x8dct=1 / cqm=0 / deadzone=21,11 / fast_pskip=1 / chroma_qp_offset=-3 / threads=8 / sliced_threads=0 / nr=0 / decimate=1 / interlaced=0 / bluray_compat=0 / constrained_intra=0 / bframes=3 / b_pyramid=1 / b_adapt=2 / b_bias=0 / direct=3 / weightb=1 / open_gop=0 / weightp=2 / keyint=250 / keyint_min=25 / scenecut=40 / intra_refresh=0 / rc_lookahead=40 / rc=abr / mbtree=1 / bitrate=2500 / ratetol=1.0 / qcomp=0.60 / qpmin=10 / qpmax=51 / qpstep=4 / vbv_maxrate=31250 / vbv_bufsize=62500 / nal_hrd=none / ip_ratio=1.40 / aq=1:1.00
Language : Thai
Default : Yes
Forced : No

Audio #1
ID : 2
Format : AC-3
Format/Info : Audio Coding 3
Commercial name : Dolby Digital
Codec ID : A_AC3
Duration : 2 h 38 min
Bit rate mode : Constant
Bit rate : 384 kb/s
Channel(s) : 6 channels
Channel layout : L R C LFE Ls Rs
Sampling rate : 48.0 kHz
Frame rate : 31.250 FPS (1536 SPF)
Bit depth : 16 bits
Compression mode : Lossy
Stream size : 435 MiB (13%)
Title : TH 5.1
Language : Thai
Service kind : Complete Main
Default : Yes
Forced : No

Audio #2
ID : 3
Format : AC-3
Format/Info : Audio Coding 3
Commercial name : Dolby Digital
Codec ID : A_AC3
Duration : 2 h 38 min
Bit rate mode : Constant
Bit rate : 128 kb/s
Channel(s) : 2 channels
Channel layout : L R
Sampling rate : 48.0 kHz
Frame rate : 31.250 FPS (1536 SPF)
Bit depth : 16 bits
Compression mode : Lossy
Stream size : 145 MiB (4%)
Title : การสนทนาเบื้องหลังการถ่ายทำ
Language : Thai
Service kind : Complete Main
Default : No
Forced : No

Text #1
ID : 4
Format : UTF-8
Codec ID : S_TEXT/UTF8
Codec ID/Info : UTF-8 Plain Text
Title : EN
Language : English
Default : No
Forced : No

Text #2
ID : 5
Format : VobSub
Codec ID : S_VOBSUB
Codec ID/Info : Picture based subtitle format used on DVDs
Title : TH คำบรรยายภาษาไทย
Language : Thai
Default : No
Forced : No

Text #3
ID : 6
Format : VobSub
Codec ID : S_VOBSUB
Codec ID/Info : Picture based subtitle format used on DVDs
Title : TH คำบรรยายภาษาไทยทดแทนการได้ยิน
Language : Thai
Default : No
Forced : No

DOWNLOAD


PART01 |||| PART02 |||| PART03 |||| PART04

PART01 |||| PART02 |||| PART03 |||| PART04 

PART01 |||| PART02 |||| PART03 |||| PART04

PART01 |||| PART02 |||| PART03 |||| PART04


Leave A Reply

Your email address will not be published.

%d bloggers like this: