โหลดหนัง HD MINI-HD SUPER-HQ Full-HD 1080p VIP Master Zoom ซูม หนังใหม่ ออนไลน์ มาสเตอร์ ไทย จีน ฝรั่ง การ์ตูน

[MINI Super-HQ] Jack Ryan : Shadow Recruit (2014) แจ็ค ไรอัน : สายลับไร้เงา [1080p] [พากย์ไทย 5.1 + เสียงอังกฤษ DTS] [บรรยายไทย + อังกฤษ] [เสียงไทย + ซับไทย] [OPENLOAD]

1

Jack Ryan : Shadow Recruit (2014) แจ็ค ไรอัน : สายลับไร้เงา

โหลดหนัง Jack Ryan : Shadow Recruit (2014) แจ็ค ไรอัน : สายลับไร้เงา

เรื่องย่อ Jack Ryan : Shadow Recruit (2014) แจ็ค ไรอัน : สายลับไร้เงา

แจ็ค ไรอัน (คริส ไพน์) เจ้าหน้าที่วิเคราะห์ของซีไอเอ ที่ได้รับมอบหมายให้ไปเป็นสายลับในรัสเซียและได้พบว่าเศรษฐกิจของอเมริกากำลังจะถูกคุกคามโดยมหาเศรษฐี วิคเตอร์ เชเรวิน (เคนเน็ธ บราน่าห์) แจ็คต้องยับยั้งการกระทำของเขาให้ได้ก่อนที่เหตุการณ์จะลุกลามโดยได้รับการสนับสนุนจาก วิลเลี่ยม ฮาร์เปอร์ (เควิน คอสเนอร์) สายลับจอมเก๋าที่เป็นผู้ฝึกสอนของแจ็คเรื่องราวซับซ้อนขึ้นเมื่อเคธี่ ไรอัน (เคียร่า ไนท์ลี่ย์) ภรรยาคนสวยของแจ็คเข้ามาเกี่ยวข้องและที่กำลังอยู่ในอันตราย!!!

Complete name : [MINI Super-HQ]_Jack.Ryan.Shadow.Recruit.2014.1080p.BrRip.DTS.x264.One2loadup.com.mkv
Format : Matroska
Format version : Version 4
File size : 3.90 GiB
Duration : 1 h 45 min
Overall bit rate : 5 293 kb/s
Movie name : [MINI Super-HQ]_Jack.Ryan.Shadow.Recruit.2014.1080p.BrRip.DTS.x264.One2loadup.com
Encoded date : UTC 2010-02-22 21:41:31
Writing application : mkvmerge v5.9.0 (‘On The Loose’) built on Dec 9 2012 15:37:01
Writing library : libebml v1.3.0 + libmatroska v1.4.0

Video
ID : 1
Format : AVC
Format/Info : Advanced Video Codec
Format profile : [email protected]
Format settings : CABAC / 4 Ref Frames
Format settings, CABAC : Yes
Format settings, ReFrames : 4 frames
Codec ID : V_MPEG4/ISO/AVC
Duration : 1 h 45 min
Bit rate : 3 929 kb/s
Width : 1 912 pixels
Height : 800 pixels
Display aspect ratio : 2.40:1
Original display aspect rat : 2.40:1
Frame rate mode : Constant
Frame rate : 23.810 FPS
Color space : YUV
Chroma subsampling : 4:2:0
Bit depth : 8 bits
Scan type : Progressive
Bits/(Pixel*Frame) : 0.108
Stream size : 2.94 GiB (75%)
Title : [MINI Super-HQ]_Jack.Ryan.Shadow.Recruit.2014.1080p.BrRip.DTS.x264.One2loadup.com
Writing library : x264 core 130 r2273 b3065e6
Encoding settings : cabac=1 / ref=3 / deblock=1:0:0 / analyse=0x3:0x113 / me=umh / subme=10 / psy=1 / psy_rd=1.00:0.00 / mixed_ref=1 / me_range=24 / chroma_me=1 / trellis=2 / 8x8dct=1 / cqm=0 / deadzone=21,11 / fast_pskip=1 / chroma_qp_offset=-2 / threads=12 / lookahead_threads=1 / sliced_threads=0 / nr=0 / decimate=1 / interlaced=0 / bluray_compat=0 / constrained_intra=0 / bframes=3 / b_pyramid=2 / b_adapt=1 / b_bias=0 / direct=1 / weightb=1 / open_gop=0 / weightp=2 / keyint=240 / keyint_min=24 / scenecut=40 / intra_refresh=0 / rc_lookahead=40 / rc=2pass / mbtree=1 / bitrate=3929 / ratetol=1.0 / qcomp=0.60 / qpmin=0 / qpmax=69 / qpstep=4 / cplxblur=20.0 / qblur=0.5 / ip_ratio=1.40 / aq=1:1.00
Language : English
Default : No
Forced : No
Color range : Limited
Color primaries : BT.709
Transfer characteristics : BT.709
Matrix coefficients : BT.709

Audio #1
ID : 2
Format : AC-3
Format/Info : Audio Coding 3
Commercial name : Dolby Digital
Codec ID : A_AC3
Duration : 1 h 45 min
Bit rate mode : Constant
Bit rate : 448 kb/s
Channel(s) : 6 channels
Channel layout : L R C LFE Ls Rs
Sampling rate : 48.0 kHz
Frame rate : 31.250 FPS (1536 SPF)
Bit depth : 16 bits
Compression mode : Lossy
Stream size : 338 MiB (8%)
Title : Thai DVD Master
Language : Thai
Service kind : Complete Main
Default : Yes
Forced : Yes

Audio #2
ID : 3
Format : DTS
Format/Info : Digital Theater Systems
Codec ID : A_DTS
Duration : 1 h 45 min
Bit rate mode : Constant
Bit rate : 755 kb/s
Channel(s) : 6 channels
Channel layout : C L R Ls Rs LFE
Sampling rate : 48.0 kHz
Frame rate : 93.750 FPS (512 SPF)
Bit depth : 24 bits
Compression mode : Lossy
Stream size : 570 MiB (14%)
Title : English DTS
Language : English
Default : No
Forced : No

Text #1
ID : 4
Format : VobSub
Codec ID : S_VOBSUB
Codec ID/Info : Picture based subtitle format used on DVDs
Title : Thai 480p DVD Master
Language : Thai
Default : No
Forced : No

Text #2
ID : 5
Format : VobSub
Codec ID : S_VOBSUB
Codec ID/Info : Picture based subtitle format used on DVDs
Title : Thai 720p
Language : Thai
Default : No
Forced : No

Text #3
ID : 6
Format : VobSub
Codec ID : S_VOBSUB
Codec ID/Info : Picture based subtitle format used on DVDs
Title : Thai 1080p
Language : Thai
Default : Yes
Forced : Yes

Text #4
ID : 7
Format : VobSub
Codec ID : S_VOBSUB
Codec ID/Info : Picture based subtitle format used on DVDs
Title : Thai 1080p Out
Language : Thai
Default : No
Forced : No

Text #5
ID : 8
Format : VobSub
Codec ID : S_VOBSUB
Codec ID/Info : Picture based subtitle format used on DVDs
Title : Thai 1080p Out [BIG]
Language : Thai
Default : No
Forced : No

Text #6
ID : 9
Format : VobSub
Codec ID : S_VOBSUB
Codec ID/Info : Picture based subtitle format used on DVDs
Title : Thai 1080p Yellow
Language : Thai
Default : No
Forced : No

Text #7
ID : 10
Format : VobSub
Codec ID : S_VOBSUB
Codec ID/Info : Picture based subtitle format used on DVDs
Title : Thai 1080p BIG
Language : Thai
Default : No
Forced : No

Text #8
ID : 11
Format : PGS
Codec ID : S_HDMV/PGS
Codec ID/Info : Picture based subtitle format used on BDs/HD-DVDs
Title : Thai PGS Yellow
Language : Thai
Default : No
Forced : No

Text #9
ID : 12
Format : PGS
Codec ID : S_HDMV/PGS
Codec ID/Info : Picture based subtitle format used on BDs/HD-DVDs
Title : Thai PGS
Language : Thai
Default : No
Forced : No

Text #10
ID : 13
Format : PGS
Codec ID : S_HDMV/PGS
Codec ID/Info : Picture based subtitle format used on BDs/HD-DVDs
Title : Thai PGS Out
Language : Thai
Default : No
Forced : No

Text #11
ID : 14
Format : UTF-8
Codec ID : S_TEXT/UTF8
Codec ID/Info : UTF-8 Plain Text
Title : English
Language : English
Default : No
Forced : No

Text #12
ID : 15
Format : VobSub
Codec ID : S_VOBSUB
Codec ID/Info : Picture based subtitle format used on DVDs
Title : English Commentary
Language : English
Default : No
Forced : No

Menu
00:00:00.000 : en:Chapter 1
00:05:45.637 : en:Chapter 2
00:12:02.555 : en:Chapter 3
00:18:11.090 : en:Chapter 4
00:23:38.959 : en:Chapter 5
00:31:19.878 : en:Chapter 6
00:40:26.382 : en:Chapter 7
00:48:47.633 : en:Chapter 8
00:57:28.153 : en:Chapter 9
01:06:19.850 : en:Chapter 10
01:13:07.675 : en:Chapter 11
01:21:54.075 : en:Chapter 12
01:27:07.180 : en:Chapter 13
01:35:21.632 : en:Chapter 14
01:38:54.762 : en:Chapter 15

DOWNLOAD


PART01 |||| PART02 |||| PART03 |||| PART04

PART01 |||| PART02 |||| PART03 |||| PART04

PART01 |||| PART02 |||| PART03 |||| PART04

PART01 |||| PART02 |||| PART03 |||| PART04


1 Comment
  1. Adisorn Joochang
    Adisorn Joochang says

    ขอบคุณมากๆ ครับ ผมรอตั้งหลายอาทิตย์เพิ่งเจอ

Leave A Reply

Your email address will not be published.

%d bloggers like this: