โหลดหนัง HD MINI-HD SUPER-HQ Full-HD 1080p VIP Master Zoom ซูม หนังใหม่ ออนไลน์ มาสเตอร์ ไทย จีน ฝรั่ง การ์ตูน

[MINI Super-HQ] Inside Out (2015) มหัศจรรย์อารมณ์อลเวง [1080p] [พากย์ไทย 5.1 + เสียงอังกฤษ DTS] [บรรยายไทย + อังกฤษ] [เสียงไทย + ซับไทย] [ONE2UP]

2

โหลดหนัง  Inside Out (2015) มหัศจรรย์อารมณ์อลเวง

เรื่องย่อ Inside Out (2015) มหัศจรรย์อารมณ์อลเวง

ในศูนย์บัญชาการ ซึ่งเป็นศูนย์ควบคุมภายในความคิดของ ไรลีย์ เด็กหญิงวัย 11 ขวบ อารมณ์ทั้งห้ากำลังทำงานอย่างหนักพวกเขานำทีมโดย ความสุข ผู้มองโลกในแง่ดี ภารกิจของเธอคือการทำให้แน่ใจว่าไรลีย์จะมีความสุขอยู่เสมอ ความกลัวคอยดูแลเรื่องความปลอดภัย ความโกรธคอยรับประกันความยุติธรรม และความรังเกียจที่คอยป้องกันไม่ให้ไรลีย์ต้องบอบช้ำทั้งทางร่างกายและสังคม ความเศร้าไม่ค่อยแน่ใจว่าหน้าที่ของเธอคืออะไร และพูดตรงๆ เลยว่า คนอื่นก็ไม่แน่ใจเหมือนกัน!!!

Complete name : [MINI Super-HQ]_Inside.Out.2015.1080p.BrRip.DTS.x264.One2loadup.com.mkv
Format : Matroska
Format version : Version 4
File size : 4.32 GiB
Duration : 1 h 34 min
Overall bit rate : 6 525 kb/s
Movie name : [MINI Super-HQ]_Inside.Out.2015.1080p.BrRip.DTS.x264.One2loadup.com
Encoded date : UTC 2017-10-17 10:31:04
Writing application : mkvmerge v17.0.0 (‘Be Ur Friend’) 64-bit
Writing library : libebml v1.3.5 + libmatroska v1.4.8
Cover : Yes
Attachments : cover.jpg

Video
ID : 1
Format : AVC
Format/Info : Advanced Video Codec
Format profile : [email protected]
Format settings : CABAC / 4 Ref Frames
Format settings, CABAC : Yes
Format settings, ReFrames : 4 frames
Codec ID : V_MPEG4/ISO/AVC
Duration : 1 h 34 min
Bit rate : 5 102 kb/s
Width : 1 920 pixels
Height : 1 080 pixels
Display aspect ratio : 16:9
Frame rate mode : Constant
Frame rate : 23.976 FPS
Color space : YUV
Chroma subsampling : 4:2:0
Bit depth : 8 bits
Scan type : Progressive
Bits/(Pixel*Frame) : 0.103
Stream size : 3.37 GiB (78%)
Title : [MINI Super-HQ]_Inside.Out.2015.1080p.BrRip.DTS.x264.One2loadup.com
Writing library : x264 core 148 r2638 7599210
Encoding settings : cabac=1 / ref=4 / deblock=1:0:0 / analyse=0x3:0x133 / me=umh / subme=7 / psy=1 / psy_rd=1.00:0.00 / mixed_ref=1 / me_range=16 / chroma_me=1 / trellis=1 / 8x8dct=1 / cqm=0 / deadzone=21,11 / fast_pskip=0 / chroma_qp_offset=-2 / threads=12 / lookahead_threads=2 / sliced_threads=0 / nr=0 / decimate=1 / interlaced=0 / bluray_compat=0 / constrained_intra=0 / bframes=3 / b_pyramid=2 / b_adapt=1 / b_bias=0 / direct=1 / weightb=1 / open_gop=0 / weightp=2 / keyint=250 / keyint_min=23 / scenecut=40 / intra_refresh=0 / rc_lookahead=40 / rc=2pass / mbtree=1 / bitrate=5102 / ratetol=1.0 / qcomp=0.60 / qpmin=0 / qpmax=69 / qpstep=4 / cplxblur=20.0 / qblur=0.5 / ip_ratio=1.40 / aq=1:1.00
Language : English
Default : Yes
Forced : No

Audio #1
ID : 2
Format : AC-3
Format/Info : Audio Coding 3
Commercial name : Dolby Digital
Codec ID : A_AC3
Duration : 1 h 34 min
Bit rate mode : Constant
Bit rate : 640 kb/s
Channel(s) : 6 channels
Channel layout : L R C LFE Ls Rs
Sampling rate : 48.0 kHz
Frame rate : 31.250 FPS (1536 SPF)
Bit depth : 16 bits
Compression mode : Lossy
Stream size : 433 MiB (10%)
Title : Thai AC3 5.1 BluRay Master
Language : Thai
Service kind : Complete Main
Default : Yes
Forced : Yes

Audio #2
ID : 3
Format : DTS
Format/Info : Digital Theater Systems
Codec ID : A_DTS
Duration : 1 h 34 min
Bit rate mode : Constant
Bit rate : 755 kb/s
Channel(s) : 6 channels
Channel layout : C L R Ls Rs LFE
Sampling rate : 48.0 kHz
Frame rate : 93.750 FPS (512 SPF)
Bit depth : 24 bits
Compression mode : Lossy
Stream size : 512 MiB (12%)
Title : Eng DTS 5.1
Language : English
Default : No
Forced : No

Text #1
ID : 4
Format : VobSub
Muxing mode : zlib
Codec ID : S_VOBSUB
Codec ID/Info : Picture based subtitle format used on DVDs
Duration : 1 h 26 min
Bit rate : 2 542 b/s
Count of elements : 1261
Stream size : 1.58 MiB (0%)
Title : Thai 480p
Language : Thai
Default : No
Forced : No

Text #2
ID : 5
Format : VobSub
Muxing mode : zlib
Codec ID : S_VOBSUB
Codec ID/Info : Picture based subtitle format used on DVDs
Duration : 1 h 26 min
Bit rate : 7 616 b/s
Count of elements : 1261
Stream size : 4.74 MiB (0%)
Title : Thai 1080p
Language : Thai
Default : No
Forced : No

Text #3
ID : 6
Format : VobSub
Muxing mode : zlib
Codec ID : S_VOBSUB
Codec ID/Info : Picture based subtitle format used on DVDs
Duration : 1 h 26 min
Bit rate : 7 617 b/s
Count of elements : 1261
Stream size : 4.74 MiB (0%)
Title : Thai 1080p Yellow
Language : Thai
Default : No
Forced : No

Text #4
ID : 7
Format : PGS
Muxing mode : zlib
Codec ID : S_HDMV/PGS
Codec ID/Info : Picture based subtitle format used on BDs/HD-DVDs
Duration : 1 h 33 min
Bit rate : 44.5 kb/s
Count of elements : 2734
Stream size : 29.8 MiB (1%)
Title : Eng
Language : English
Default : No
Forced : No

Text #5
ID : 8
Format : PGS
Muxing mode : zlib
Codec ID : S_HDMV/PGS
Codec ID/Info : Picture based subtitle format used on BDs/HD-DVDs
Duration : 1 h 26 min
Bit rate : 22.5 kb/s
Count of elements : 2522
Stream size : 14.0 MiB (0%)
Title : Thai PGS Bluray MASTER
Language : Thai
Default : Yes
Forced : Yes

Text #6
ID : 9
Format : PGS
Muxing mode : zlib
Codec ID : S_HDMV/PGS
Codec ID/Info : Picture based subtitle format used on BDs/HD-DVDs
Duration : 1 h 26 min
Bit rate : 28.6 kb/s
Count of elements : 2522
Stream size : 17.8 MiB (0%)
Title : Thai PGS Bluray MASTER Yellow
Language : Thai
Default : No
Forced : Yes

DOWNLOAD


PART01 |||| PART02 |||| PART03 |||| PART04 |||| PART05

PART01 |||| PART02 |||| PART03 |||| PART04 |||| PART05

PART01 |||| PART02 |||| PART03 |||| PART04 |||| PART05

PART01 |||| PART02 |||| PART03 |||| PART04 |||| PART05


2 Comments
  1. Def says

    Dear Admin,

    i am looking for
    1. Monster House.2006
    2.Ratatouille.2007
    3.Rio (1).2011
    4.Rio (2).2014
    5.Epic.2013
    6.9 Satra.Legend of Muay Thai.2018

    Thank you

    1. Admin
      Admin says

      request movies clink here http://www.one2loadup.com/requestmovie

Leave A Reply

Your email address will not be published.

%d bloggers like this: