[MINI Super-HQ] Initial D (2005) ดริฟท์ติ้ง ซิ่งสายฟ้า [1080p] [พากย์ไทย 5.1 + เสียงจีน 5.1] [บรรยายไทย + อังกฤษ] [เสียงไทย + ซับไทย] [OPENLOAD]

0

Initial D (2005)

โหลดหนัง Initial D (2005) ดริฟท์ติ้ง ซิ่งสายฟ้า

Tau man ji D (2005) 1h 47min | Action, Comedy, Drama | 23 June 2005 (China) Summary: After winning his first competition, Takumi focuses his attention on drift racing, a sport he has unknowingly perfected while delivering tofu in his father's Toyota AE86.
Countries: China, Hong KongLanguages: Cantonese, English

เรื่องย่อ Initial D (2005) ดริฟท์ติ้ง ซิ่งสายฟ้า

เรื่องราวของนักแข่งรถ ที่เร็วที่สุดของยอดเขาอะกินะ ทาคูมิ เด็กส่งของ , เรียวซึเกะ วิศวกรความเร็ว และ เคียวอิจิ นักแข่งรถอาชีพ ทั้งสามคนกลายมาเป็นผู้ท้าประลองความเร็วในครั้งนั้น เป็นเวลากว่าห้าปีที่ ทาคูมิ ฟูจิวาระ (เจย์ โชว) เด็กหนุ่มวัยสิบแปดปี ส่งเต้าหู้ด้วยรถโตโยตา AE86 เก่าคร่ำครึในทุกๆ เช้า ไม่เพียงแต่เขาจะกลายมาเป็นนักแข่งฝีมือดีเท่านั้น แต่เขายังได้ฝึกปรือศิลปะการแล่นรถของเขา จนสมบูรณ์แบบอีกด้วยเขาไม่ได้เป็นผู้ที่รักการแข่งรถบนเขา อย่างเป็นชีวิตจิตใจมาก่อน จนกระทั่งพ่อของเขามาขอให้เขาขับรถ AE86 ไปสู้กับ EVO IV ของ ไนท์ คิด (Night Kid) ในการแข่งรถ David and Goliath (ดาวิด แอนด์ โกไลแอธ) ชัยชนะที่ไม่คาดหวัง แต่ช่างเต็มไปด้วยความสวยสดงดงาม ได้ปลุกเลือดนักแข่งในตัวของเขา ในขณะที่ชื่อเสียงที่มีมาชั่วข้ามคืน ได้นำเขาเข้าสู่การแข่งรถท้ามฤตยูครั้งแล้วครั้งเล่า ที่แต่ละครั้ง ก็ยิ่งทวีความตื่นเต้นและอันตรายมากขึ้น อย่างไม่สามารถหลีกเลี่ยงได้!!

Complete name : [MINI Super-HQ]_Initial.D.2005.1080p.BrRip.AC3.x264.One2loadup.com.mkv
Format : Matroska
Format version : Version 4
File size : 4.37 GiB
Duration : 1 h 48 min
Overall bit rate : 5 745 kb/s
Movie name : [MINI Super-HQ]_Initial.D.2005.1080p.BrRip.AC3.x264.One2loadup.com
Encoded date : UTC 2015-08-10 11:33:27
Writing application : mkvmerge v7.8.0 (‘River Man’) 32bit built on Mar 27 2015 16:18:02
Writing library : libebml v1.3.1 + libmatroska v1.4.2
Cover : Yes
Attachments : cover_land.png / cover.png

Video
ID : 1
Format : AVC
Format/Info : Advanced Video Codec
Format profile : [email protected]
Format settings : CABAC / 4 Ref Frames
Format settings, CABAC : Yes
Format settings, ReFrames : 4 frames
Codec ID : V_MPEG4/ISO/AVC
Duration : 1 h 48 min
Bit rate : 3 900 kb/s
Width : 1 920 pixels
Height : 816 pixels
Display aspect ratio : 2.35:1
Frame rate mode : Constant
Frame rate : 24.000 FPS
Color space : YUV
Chroma subsampling : 4:2:0
Bit depth : 8 bits
Scan type : Progressive
Bits/(Pixel*Frame) : 0.104
Stream size : 2.97 GiB (68%)
Title : [MINI Super-HQ]_Initial.D.2005.1080p.BrRip.AC3.x264.One2loadup.com
Writing library : x264 core 142 r2431+42 c69a006 tMod [[email protected] X86]
Encoding settings : cabac=1 / ref=4 / deblock=1:-3:-3 / analyse=0x3:0x133 / me=umh / subme=11 / psy=1 / fade_compensate=0.00 / psy_rd=1.00:0.15 / mixed_ref=1 / me_range=48 / chroma_me=1 / trellis=2 / 8x8dct=1 / cqm=0 / deadzone=21,11 / fast_pskip=0 / chroma_qp_offset=-3 / threads=12 / lookahead_threads=1 / sliced_threads=0 / nr=0 / decimate=1 / interlaced=0 / bluray_compat=0 / constrained_intra=0 / fgo=0 / bframes=4 / b_pyramid=2 / b_adapt=2 / b_bias=0 / direct=3 / weightb=1 / open_gop=0 / weightp=2 / keyint=240 / keyint_min=23 / scenecut=40 / intra_refresh=0 / rc_lookahead=120 / rc=2pass / mbtree=1 / bitrate=3900 / ratetol=1.0 / qcomp=0.60 / qpmin=0:0:0 / qpmax=37:37:37 / qpstep=4 / cplxblur=20.0 / qblur=0.5 / vbv_maxrate=30000 / vbv_bufsize=38000 / nal_hrd=none / filler=0 / ip_ratio=1.10 / aq=3:0.90 / aq-sensitivity=10.00 / aq-factor=1.00:1.00:1.00 / aq2=0 / aq3=0
Language : Chinese
Default : Yes
Forced : No

Audio #1
ID : 2
Format : AC-3
Format/Info : Audio Coding 3
Commercial name : Dolby Digital
Codec ID : A_AC3
Duration : 1 h 48 min
Bit rate mode : Constant
Bit rate : 448 kb/s
Channel(s) : 6 channels
Channel layout : L R C LFE Ls Rs
Sampling rate : 48.0 kHz
Frame rate : 31.250 FPS (1536 SPF)
Bit depth : 16 bits
Compression mode : Lossy
Stream size : 349 MiB (8%)
Title : AC3 448 Kbps
Language : Thai
Service kind : Complete Main
Default : Yes
Forced : Yes

Audio #2
ID : 3
Format : AC-3
Format/Info : Audio Coding 3
Commercial name : Dolby Digital
Codec ID : A_AC3
Duration : 1 h 48 min
Bit rate mode : Constant
Bit rate : 640 kb/s
Channel(s) : 6 channels
Channel layout : L R C LFE Ls Rs
Sampling rate : 48.0 kHz
Frame rate : 31.250 FPS (1536 SPF)
Bit depth : 16 bits
Compression mode : Lossy
Stream size : 498 MiB (11%)
Title : AC3 640 Kbps Mandarin
Language : Chinese
Service kind : Complete Main
Default : No
Forced : No

Audio #3
ID : 4
Format : AC-3
Format/Info : Audio Coding 3
Commercial name : Dolby Digital
Codec ID : A_AC3
Duration : 1 h 48 min
Bit rate mode : Constant
Bit rate : 640 kb/s
Channel(s) : 6 channels
Channel layout : L R C LFE Ls Rs
Sampling rate : 48.0 kHz
Frame rate : 31.250 FPS (1536 SPF)
Bit depth : 16 bits
Compression mode : Lossy
Stream size : 498 MiB (11%)
Title : AC3 640 Kbps Cantonese
Language : Chinese
Service kind : Complete Main
Default : No
Forced : No

Text #1
ID : 5
Format : VobSub
Codec ID : S_VOBSUB
Codec ID/Info : Picture based subtitle format used on DVDs
Title : 1080p th sarabun
Language : Thai
Default : Yes
Forced : Yes

Text #2
ID : 6
Format : UTF-8
Codec ID : S_TEXT/UTF8
Codec ID/Info : UTF-8 Plain Text
Title : SRT
Language : English
Default : No
Forced : No

Text #3
ID : 7
Format : PGS
Codec ID : S_HDMV/PGS
Codec ID/Info : Picture based subtitle format used on BDs/HD-DVDs
Title : PGS th sarabun
Language : Thai
Default : No
Forced : No

Text #4
ID : 8
Format : PGS
Codec ID : S_HDMV/PGS
Codec ID/Info : Picture based subtitle format used on BDs/HD-DVDs
Title : PGS angsana
Language : Thai
Default : No
Forced : No

Text #5
ID : 9
Format : PGS
Codec ID : S_HDMV/PGS
Codec ID/Info : Picture based subtitle format used on BDs/HD-DVDs
Title : PGS
Language : English
Default : No
Forced : No

Text #6
ID : 10
Format : PGS
Codec ID : S_HDMV/PGS
Codec ID/Info : Picture based subtitle format used on BDs/HD-DVDs
Title : PGS Simplified
Language : Chinese
Default : No
Forced : No

Text #7
ID : 11
Format : PGS
Codec ID : S_HDMV/PGS
Codec ID/Info : Picture based subtitle format used on BDs/HD-DVDs
Title : PGS Traditional
Language : Chinese
Default : No
Forced : No

DOWNLOAD


PART01 |||| PART02 |||| PART03 |||| PART04 |||| PART05

PART01 |||| PART02 |||| PART03 |||| PART04 |||| PART05

PART01 |||| PART02 |||| PART03 |||| PART04 |||| PART05

PART01 |||| PART02 |||| PART03 |||| PART04 |||| PART05


Leave A Reply

Your email address will not be published.

%d bloggers like this: