[MINI Super-HQ] IceMan (2014) ล่าทะลุศตวรรษ [1080p] [พากย์ไทย 5.1 + เสียงจีน DTS] [บรรยายไทย + อังกฤษ] [เสียงไทย + ซับไทย] [OPENLOAD]

0

IceMan (2014)

โหลดหนัง  IceMan (2014) ล่าทะลุศตวรรษ

Gap tung kei hap (2014) 1h 44min | Action, Comedy, History | 17 April 2014 (Hong Kong) Summary: An imperial guard and his three traitorous childhood friends ordered to hunt him down get accidentally buried and kept frozen in time. 400 years later passes and they are defrosted continuing the battle they left behind.
Countries: China, Hong KongLanguages: Mandarin, Cantonese, English, Hindi

เรื่องย่อ IceMan (2014) ล่าทะลุศตวรรษ

ในราชวงศ์หมิงมีเด็กกำพร้าสี่คน  อิง  (รับบทโดย ดอนนี่ เยน),  เส้า  (รับบทโดย หวังเป่าเฉียง),  หยวนหลง  (รับบทโดย เยิ่นต๊ะหัว)และ  หนี่ฮู  (รับบทโดย ยู คัง) ทั้งสี่คนโตขึ้นมาในหมู่บ้านเต๋าหยวน สนิทกันเหมือนพี่น้องด้วยวิทยายุทธที่ยอดเยี่ยมทำให้พวกเขาสามารถก้าวไปเป็นราชองครักษ์ชั้นสูงได้หลังจากที่ทั้งสี่คนสังหารผู้นำทัพญี่ปุ่นได้สำเร็จ องค์ฮ่องเต้ได้บัญชาให้  อิง  เป็นผู้ดูแลการนำกงล้อทองคำจากสินธุกลับมายังเมืองหลวงระหว่างการปฏิบัติภารกิจ  อิง  ถูกใส่ร้ายว่าเป็นฆาตกร ฮ่องเต้จึงสั่งประหาร  อิง  ทำให้อิงสู้เพื่อหนีการจับกุมความรุนแรงของการต่อสู้ครั้งนั้นสั่นสะเทือนปฐพี จนทำให้เกิดหิมะถล่มลงมาทับร่างของทั้งสี่ในปี 2013 บริษัท สไควร์ ถัง ได้ขุดพบร่างมนุษย์โบราณที่ถูกแช่แข็งไว้คือ  อิง ,  เส้า  และ  หนีฮู  ระหว่างการขนย้ายรถขนส่งเกิดอุบัติเหตุทำให้น้ำแข็งที่ปกคลุมร่างของ  อิง  ละลายจนฟื้นคืนสติขึ้นมาในฮ่องกงสมัยใหม่และเขาก็บังเอิญได้พบกับ  เมย์ สาวสังคมตัวแม่  อิง เริ่มคุ้นชินกับสังคมสมัยใหม่ ด้วยความช่วยเหลือจากอินเทอร์เน็ตเขาพบหลักฐานทางประวัติศาสตร์ที่ระบุว่าตัวเองถูกกล่าวหาว่าเป็นกบฏ  อิง  จะลบล้างความผิดให้ตัวเองได้หรือไม่ติดตามได้ใน ICEMAN 3D ล่าทะลุศตวรรษ!!!

Complete name : [MINI Super-HQ]_Iceman.2014.1080p.BrRip.DTS.x264.One2loadup.com.mkv
Format : Matroska
Format version : Version 4
File size : 3.89 GiB
Duration : 1 h 44 min
Overall bit rate : 5 340 kb/s
Movie name : [MINI Super-HQ]_Iceman.2014.1080p.BrRip.DTS.x264.One2loadup.com
Encoded date : UTC 2010-02-22 21:41:31
Writing application : mkvmerge v5.9.0 (‘On The Loose’) built on Dec 9 2012 15:37:01
Writing library : libebml v1.3.0 + libmatroska v1.4.0

Video
ID : 1
Format : AVC
Format/Info : Advanced Video Codec
Format profile : [email protected]
Format settings : CABAC / 4 Ref Frames
Format settings, CABAC : Yes
Format settings, ReFrames : 4 frames
Codec ID : V_MPEG4/ISO/AVC
Duration : 1 h 44 min
Bit rate : 3 555 kb/s
Width : 1 920 pixels
Height : 856 pixels
Display aspect ratio : 2.25:1
Frame rate mode : Constant
Frame rate : 23.810 FPS
Color space : YUV
Chroma subsampling : 4:2:0
Bit depth : 8 bits
Scan type : Progressive
Bits/(Pixel*Frame) : 0.091
Stream size : 2.61 GiB (67%)
Title : [MINI Super-HQ]_Iceman.2014.1080p.BrRip.DTS.x264.One2loadup.com
Writing library : x264 core 130 r2273 b3065e6
Encoding settings : cabac=1 / ref=4 / deblock=1:0:0 / analyse=0x3:0x113 / me=umh / subme=11 / psy=1 / psy_rd=1.00:0.00 / mixed_ref=1 / me_range=24 / chroma_me=1 / trellis=2 / 8x8dct=1 / cqm=0 / deadzone=21,11 / fast_pskip=1 / chroma_qp_offset=-2 / threads=12 / lookahead_threads=1 / sliced_threads=0 / nr=0 / decimate=1 / interlaced=0 / bluray_compat=0 / constrained_intra=0 / bframes=4 / b_pyramid=2 / b_adapt=1 / b_bias=0 / direct=1 / weightb=1 / open_gop=0 / weightp=2 / keyint=240 / keyint_min=24 / scenecut=40 / intra_refresh=0 / rc_lookahead=40 / rc=2pass / mbtree=1 / bitrate=3555 / ratetol=1.0 / qcomp=0.60 / qpmin=0 / qpmax=69 / qpstep=4 / cplxblur=20.0 / qblur=0.5 / ip_ratio=1.40 / aq=1:1.00
Language : Chinese
Default : Yes
Forced : No
Color range : Limited
Color primaries : BT.709
Transfer characteristics : BT.709
Matrix coefficients : BT.709

Audio #1
ID : 2
Format : AC-3
Format/Info : Audio Coding 3
Commercial name : Dolby Digital
Codec ID : A_AC3
Duration : 1 h 44 min
Bit rate mode : Constant
Bit rate : 448 kb/s
Channel(s) : 6 channels
Channel layout : L R C LFE Ls Rs
Sampling rate : 48.0 kHz
Frame rate : 31.250 FPS (1536 SPF)
Bit depth : 16 bits
Compression mode : Lossy
Stream size : 334 MiB (8%)
Title : Thai DVD Master
Language : Thai
Service kind : Complete Main
Default : Yes
Forced : Yes

Audio #2
ID : 3
Format : DTS
Format/Info : Digital Theater Systems
Codec ID : A_DTS
Duration : 1 h 44 min
Bit rate mode : Constant
Bit rate : 755 kb/s
Channel(s) : 6 channels
Channel layout : C L R Ls Rs LFE
Sampling rate : 48.0 kHz
Frame rate : 93.750 FPS (512 SPF)
Bit depth : 24 bits
Compression mode : Lossy
Stream size : 562 MiB (14%)
Title : Cantonese DTS
Language : Chinese
Default : No
Forced : No

Audio #3
ID : 4
Format : AC-3
Format/Info : Audio Coding 3
Commercial name : Dolby Digital
Codec ID : A_AC3
Duration : 1 h 44 min
Bit rate mode : Constant
Bit rate : 448 kb/s
Channel(s) : 6 channels
Channel layout : L R C LFE Ls Rs
Sampling rate : 48.0 kHz
Frame rate : 31.250 FPS (1536 SPF)
Bit depth : 16 bits
Compression mode : Lossy
Stream size : 334 MiB (8%)
Title : Mandarin AC3 5.1
Language : Chinese
Service kind : Complete Main
Default : No
Forced : No

Text #1
ID : 5
Format : VobSub
Codec ID : S_VOBSUB
Codec ID/Info : Picture based subtitle format used on DVDs
Title : Thai 480p From DVD Master
Language : Thai
Default : No
Forced : No

Text #2
ID : 6
Format : VobSub
Codec ID : S_VOBSUB
Codec ID/Info : Picture based subtitle format used on DVDs
Title : Thai 720p
Language : Thai
Default : No
Forced : No

Text #3
ID : 7
Format : VobSub
Codec ID : S_VOBSUB
Codec ID/Info : Picture based subtitle format used on DVDs
Title : Thai 1080p
Language : Thai
Default : Yes
Forced : Yes

Text #4
ID : 8
Format : VobSub
Codec ID : S_VOBSUB
Codec ID/Info : Picture based subtitle format used on DVDs
Title : Thai 1080p Yellow
Language : Thai
Default : No
Forced : No

Text #5
ID : 9
Format : VobSub
Codec ID : S_VOBSUB
Codec ID/Info : Picture based subtitle format used on DVDs
Title : Thai 1080p BIG
Language : Thai
Default : No
Forced : No

Text #6
ID : 10
Format : VobSub
Codec ID : S_VOBSUB
Codec ID/Info : Picture based subtitle format used on DVDs
Title : Thai 1080p Out
Language : Thai
Default : No
Forced : No

Text #7
ID : 11
Format : VobSub
Codec ID : S_VOBSUB
Codec ID/Info : Picture based subtitle format used on DVDs
Title : Thai 1080p Out [BIG]
Language : Thai
Default : No
Forced : No

Text #8
ID : 12
Format : PGS
Codec ID : S_HDMV/PGS
Codec ID/Info : Picture based subtitle format used on BDs/HD-DVDs
Title : Thai PGS
Language : Thai
Default : No
Forced : No

Text #9
ID : 13
Format : PGS
Codec ID : S_HDMV/PGS
Codec ID/Info : Picture based subtitle format used on BDs/HD-DVDs
Title : Thai PGS Out
Language : Thai
Default : No
Forced : No

Text #10
ID : 14
Format : PGS
Codec ID : S_HDMV/PGS
Codec ID/Info : Picture based subtitle format used on BDs/HD-DVDs
Title : Thai PGS Yellow
Language : Thai
Default : No
Forced : No

Text #11
ID : 15
Format : VobSub
Codec ID : S_VOBSUB
Codec ID/Info : Picture based subtitle format used on DVDs
Title : English
Language : English
Default : No
Forced : No

Menu
00:00:00.000 : en:00:00:00.000
00:04:42.448 : en:00:04:42.448
00:09:50.381 : en:00:09:50.381
00:14:33.539 : en:00:14:33.539
00:20:27.100 : en:00:20:27.100
00:24:54.743 : en:00:24:54.743
00:29:04.534 : en:00:29:04.534
00:33:48.860 : en:00:33:48.860
00:39:08.763 : en:00:39:08.763
00:43:02.788 : en:00:43:02.788
00:48:32.659 : en:00:48:32.659
00:53:54.189 : en:00:53:54.189
00:57:25.692 : en:00:57:25.692
01:01:27.100 : en:01:01:27.100
01:07:28.836 : en:01:07:28.836
01:10:39.443 : en:01:10:39.443
01:17:05.787 : en:01:17:05.787
01:20:45.048 : en:01:20:45.048
01:25:17.112 : en:01:25:17.112
01:36:18.397 : en:01:36:18.397

 

DOWNLOAD


PART01 |||| PART02 |||| PART03 |||| PART04

PART01 |||| PART02 |||| PART03 |||| PART04

PART01 |||| PART02 |||| PART03 |||| PART04

PART01 |||| PART02 |||| PART03 |||| PART04


Leave A Reply

Your email address will not be published.

%d bloggers like this: