โหลดหนัง HD MINI-HD SUPER-HQ Full-HD 1080p VIP Master Zoom ซูม หนังใหม่ ออนไลน์ มาสเตอร์ ไทย จีน ฝรั่ง การ์ตูน

[MINI Super-HQ] I Am Number Four (2011) ปฏิบัติการล่าเหนือโลก จอมพลังหมายเลข 4 [1080p] [พากย์ไทย 5.1 + เสียงอังกฤษ 5.1] [บรรยายไทย + อังกฤษ] [เสียงไทย + ซับไทย] [OPENLOAD]

2

I Am Number Four (2011) ปฏิบัติการล่าเหนือโลก จอมพลังหมายเลข 4

โหลดหนัง I Am Number Four (2011) ปฏิบัติการล่าเหนือโลก จอมพลังหมายเลข 4

เรื่องย่อ I Am Number Four (2011) ปฏิบัติการล่าเหนือโลก จอมพลังหมายเลข 4

ภาพยนตร์ฝรั่งแนว แอ็คชั่น ไซไฟเรื่องเยี่ยม กำกับการแสดงโดย เค.จี.คารูโซ นำแสดงโดย อเล็กซ์ เพ็ตตีเฟอร์ นักแสดงชายมากฝีมือที่เคยฝากผลงานไว้กับภาพยนตร์ เรื่อง Stormbreaker ในบทของ อเล็กซ์ ไรเดอร์ พร้อมได้รับการเสนอชื่อเข้าชิงรางวัลยังอาร์ทิสต์ และรางวัลเอมไพร์ จากบทบาทนี้ ร่วมด้วยทีโมธี โอลิแฟนท์ นักแสดงชายที่ได้รับความสนใจอย่างมากเมื่อตอนรับบท ท็อดด์ เกนส์ นักค้ายา ในผลงานที่ได้รับเสียงชื่นชมเรื่อง Go โอลแฟนท์ และไดแอนนา แอ็กรอน นักแสดงหญิงที่ได้รับรางวัลจากสมาคมนักแสดงภาพยนตร์และโทรทัศน์สาขากลุ่มนักแสดงยอดเยี่ยมจากละครแนวตลกการันตีความสามารถของเธอด้วย กับเรื่องราวของเด็กหนุ่มที่ต้องหนีการไล่ล่าจากศัตรูที่ต้องการกำจัดเขาจนต้องย้ายที่อยู่อาศัยบ่อยๆ รวมถึงต้องเปลี่ยนชื่อใหม่เพราะแท้จริงแล้วเขาคือ 1 ใน 9 ของมนุษย์ต่างดาวที่หลบหนีการตามล่ามายังโลกมนุษย์ปฏิบัติการล่าเหนือโลกจึงเกิดขึ้น!!

Complete name : [MINI Super-HQ]_I.Am.Number.Four.2011.1080p.BrRip.x264.AC3.One2loadup.com.mkv
Format : Matroska
Format version : Version 4
File size : 3.54 GiB
Duration : 1 h 49 min
Overall bit rate : 4 619 kb/s
Movie name : [MINI Super-HQ]_I.Am.Number.Four.2011.1080p.BrRip.x264.AC3.One2loadup.com
Encoded date : UTC 2014-06-17 05:07:43
Writing application : mkvmerge v6.5.0 (‘Isn’t she lovely’) built on Oct 20 2013 12:50:05
Writing library : libebml v1.3.0 + libmatroska v1.4.1

Video
ID : 1
Format : AVC
Format/Info : Advanced Video Codec
Format profile : [email protected]
Format settings : CABAC / 4 Ref Frames
Format settings, CABAC : Yes
Format settings, ReFrames : 4 frames
Codec ID : V_MPEG4/ISO/AVC
Duration : 1 h 49 min
Bit rate : 3 500 kb/s
Width : 1 920 pixels
Height : 1 036 pixels
Display aspect ratio : 16:9
Original display aspect rat : 1.85:1
Frame rate mode : Constant
Frame rate : 23.976 (24000/1001) FPS
Color space : YUV
Chroma subsampling : 4:2:0
Bit depth : 8 bits
Scan type : Progressive
Bits/(Pixel*Frame) : 0.073
Stream size : 2.63 GiB (74%)
Title : [MINI Super-HQ]_I.Am.Number.Four.2011.1080p.BrRip.x264.AC3.One2loadup.com
Writing library : x264 core 138 r2358 9e941d1
Encoding settings : cabac=1 / ref=4 / deblock=1:0:0 / analyse=0x3:0x133 / me=umh / subme=10 / psy=1 / psy_rd=1.00:0.00 / mixed_ref=1 / me_range=24 / chroma_me=1 / trellis=2 / 8x8dct=1 / cqm=0 / deadzone=21,11 / fast_pskip=1 / chroma_qp_offset=-2 / threads=18 / lookahead_threads=3 / sliced_threads=0 / nr=0 / decimate=1 / interlaced=0 / bluray_compat=0 / constrained_intra=0 / bframes=8 / b_pyramid=2 / b_adapt=2 / b_bias=0 / direct=3 / weightb=1 / open_gop=0 / weightp=2 / keyint=240 / keyint_min=23 / scenecut=40 / intra_refresh=0 / rc_lookahead=60 / rc=2pass / mbtree=1 / bitrate=3500 / ratetol=1.0 / qcomp=0.60 / qpmin=0 / qpmax=69 / qpstep=4 / cplxblur=20.0 / qblur=0.5 / vbv_maxrate=62500 / vbv_bufsize=78125 / nal_hrd=none / ip_ratio=1.40 / aq=1:1.00
Language : English
Default : Yes
Forced : No

Audio #1
ID : 2
Format : AC-3
Format/Info : Audio Coding 3
Commercial name : Dolby Digital
Codec ID : A_AC3
Duration : 1 h 49 min
Bit rate mode : Constant
Bit rate : 640 kb/s
Channel(s) : 6 channels
Channel layout : L R C LFE Ls Rs
Sampling rate : 48.0 kHz
Frame rate : 31.250 FPS (1536 SPF)
Bit depth : 16 bits
Compression mode : Lossy
Delay relative to video : 28 ms
Stream size : 502 MiB (14%)
Title : Thai AC-3 5.1 at 640 Kbps [BluRay Master]
Language : Thai
Service kind : Complete Main
Default : Yes
Forced : No

Audio #2
ID : 3
Format : AC-3
Format/Info : Audio Coding 3
Commercial name : Dolby Digital
Codec ID : A_AC3
Duration : 1 h 49 min
Bit rate mode : Constant
Bit rate : 448 kb/s
Channel(s) : 6 channels
Channel layout : L R C LFE Ls Rs
Sampling rate : 48.0 kHz
Frame rate : 31.250 FPS (1536 SPF)
Bit depth : 16 bits
Compression mode : Lossy
Stream size : 351 MiB (10%)
Title : English AC-3 5.1 at 448 Kbps
Language : English
Service kind : Complete Main
Default : No
Forced : No

Text #1
ID : 4
Format : VobSub
Muxing mode : zlib
Codec ID : S_VOBSUB
Codec ID/Info : Picture based subtitle format used on DVDs
Title : Thai 480p [BluRay Master]
Language : Thai
Default : Yes
Forced : No

Text #2
ID : 5
Format : VobSub
Muxing mode : zlib
Codec ID : S_VOBSUB
Codec ID/Info : Picture based subtitle format used on DVDs
Title : Thai 1080p [BluRay Master]
Language : Thai
Default : No
Forced : No

Text #3
ID : 6
Format : VobSub
Muxing mode : zlib
Codec ID : S_VOBSUB
Codec ID/Info : Picture based subtitle format used on DVDs
Title : Thai 1080p Under [BluRay Master]
Language : Thai
Default : No
Forced : No

Text #4
ID : 7
Format : PGS
Muxing mode : zlib
Codec ID : S_HDMV/PGS
Codec ID/Info : Picture based subtitle format used on BDs/HD-DVDs
Title : Thai PGS [BluRay Master]
Language : Thai
Default : No
Forced : No

Text #5
ID : 8
Format : VobSub
Muxing mode : zlib
Codec ID : S_VOBSUB
Codec ID/Info : Picture based subtitle format used on DVDs
Title : English 1080p [BluRay Master]
Language : English
Default : No
Forced : No

Text #6
ID : 9
Format : PGS
Muxing mode : zlib
Codec ID : S_HDMV/PGS
Codec ID/Info : Picture based subtitle format used on BDs/HD-DVDs
Title : English PGS [BluRay Master]
Language : English
Default : No
Forced : No

Text #7
ID : 10
Format : UTF-8
Codec ID : S_TEXT/UTF8
Codec ID/Info : UTF-8 Plain Text
Title : English SRT
Language : English
Default : No
Forced : No

Menu
00:00:00.000 : en:00:00:00.000
00:04:09.249 : en:00:04:09.249
00:11:33.192 : en:00:11:33.192
00:18:00.454 : en:00:18:00.454
00:25:41.373 : en:00:25:41.373
00:30:58.106 : en:00:30:58.106
00:39:29.534 : en:00:39:29.534
00:45:30.311 : en:00:45:30.311
00:54:51.663 : en:00:54:51.663
01:03:43.403 : en:01:03:43.403
01:14:23.209 : en:01:14:23.209
01:21:59.790 : en:01:21:59.790
01:27:39.337 : en:01:27:39.337
01:32:27.625 : en:01:32:27.625
01:37:03.568 : en:01:37:03.568
01:41:56.152 : en:01:41:56.152

DOWNLOAD


PART01 |||| PART02 |||| PART03 |||| PART04

PART01 |||| PART02 |||| PART03 |||| PART04

PART01 |||| PART02 |||| PART03 |||| PART04

PART01 |||| PART02 |||| PART03 |||| PART04


2 Comments
  1. วิพิชย์ ภัคบัวพันธุ์ดา

    vip เสีย

    1. Admin
      Admin says

      เสียยังไงงะ ก็โหลดได้ปกตินิหน่า

Leave A Reply

Your email address will not be published.

%d bloggers like this: