[MINI Super-HQ] Hercules (1997) เฮอร์คิวลิส [1080p] [พากย์ไทย 5.1 + เสียงอังกฤษ 5.1] [บรรยายไทย + อังกฤษ] [เสียงไทย + ซับไทย] [ONE2UP]

0

โหลดหนัง  Hercules (1997) เฮอร์คิวลิส

เรื่องย่อ Hercules (1997) เฮอร์คิวลิส

ประเด็น น่ารู้ภาพยนตร์เรื่อง Hercules (1997) เฮอร์คิวลีส ที่นำมาให้อ่านกันวันนี้ สรุปย่อเรื่องราว Hercules ถือเป็นการ์ตูน Disney ที่มีส่วนผสมทั้งสไตล์คลาสสิกดั้งเดิม และรสชาติป็อบๆ แบบคนรุ่นใหม่ที่ว่าคลาสสิกก็เพราะโครงเรื่องยังคงเอ าตำนานเก่าแก่มาผูก เรื่องดัดแปลงเสียใหม่ มีพระเอกคนดี มีตัวร้าย 100% ฝ่ายตัวเอกก็มีลูกคู่คอยตบมุข เช่นเดียวกับฝ่ายผู้ร้ายที่ต้องมีลูกน้องต๊องๆ ที่ทำงานพลาดประจำมาให้เจ้านายกระทืบตลอดเรื่อง ตามด้วยตัวละครที่พร้อมจะอ้าปากร้องเพลงได้ทุกเมื่อท ุกเวลาส่วนแก่นสารสาระ ก็สอนเด็กให้ทำดี แล้วเดี๋ยวมันจะได้ดีเอง แล้วก็สอนให้เห็นว่าคนชั่วต้องรับกรรม
แต่ที่ว่ามีรสป็อบๆ ก็เพราะมันมีความใหม่ผสมลงไป เช่น
+ มุขตลกที่ผู้ใหญ่ก็ขำตามไปด้วยได้ (เช่น มุขที่เฮเดสบอกกลุ่มปีศาจว่า “พวกนายเดินไปโอลิมปัสผิดทางนะเฟ้ย”)
+ กิมมิกแซวหนังเรื่องอื่น (อย่างหนังของ “สการ์” ตัวร้ายจาก The Lion King ที่เฮอร์คิวลีสเอามาสวมตอนทำตัวเป็นนายแบบ)
+ กิมมิกข้าวของสมัยใหม่ อย่างผลิตภัณฑ์ทั้งหลายที่มีหน้าเฮอร์คิวลีสแปะไว้ เพราะว่าพี่แกกลายเป็นพรีเซนเตอร์นั่นเอง
+ นางเอกของเรื่องที่ไม่ใช่เทพธิดาผ้าพับไว้ แต่มาพร้อมปมในใจที่ทำให้เธอมีทั้งด้านสว่างและด้านม ืดเจือปนอยู่

ความ ใหม่อีกอย่างคือเทคนิคภาพที่พัฒนาเอา CG มาผสมมากขึ้น หลายฉากก็สร้างได้อย่างน่าทึ่ง เช่น ตอนเฮอร์คิวลีสซัดกับไฮดร้า แล้วหัวมันก็งอกใหม่เรื่อยๆ เป็นอีกฉากที่ดูขลังใช่เล่นโดยรวมแล้วจัดว่าผสมได้เพ ลินครับ แม้จะไม่ถึงกับลงตัวทุกประการก็ตาม แต่ก็พูดได้เต็มปากว่าสนุก เด็กดูได้ ผู้ใหญ่ดูดีอีกสาระหนึ่งที่ชอบคือการนิยามคำว่า วีรบุรุณ (Hero) ในเรื่อง ที่ตอนแรกเฮอร์คิวลีสคิดว่าการจะเป็นฮีโร่ได้นั้น เขาต้องทำงานใหญ่ๆ ให้คนนับถือเยอะๆ ต้องมีชื่อเสียงโด่งดัง มีคนพูดถึงและเรียกไปเป็นพรีเซนเตอร์แต่ในที่สุดหนัง ก็นิยาม “ฮีโร่” ว่าหมายถึงผู้เสียสละ รู้จักรับผิดชอบ รู้จักดูแลคนที่รัก กล้าทำสิ่งถูก กล้าโต้สิ่งผิดการทำตนให้ใครๆ เรียกว่า “ฮีโร่” นั้น อาจเป็นเรื่องยากแต่การทำตนให้เป็น “ฮีโร่จริงๆ” (โดยไม่ต้องรอใครมายกย่อง) นั้นง่ายกว่ามากและเป็นได้ทันทีเมื่อมีโอกาส

Complete name : [MINI Super-HQ]_Hercules.1997.1080p.BrRip.AC3.x264.One2loadup.com.mkv
Format : Matroska
Format version : Version 4
File size : 4.25 GiB
Duration : 1 h 33 min
Overall bit rate : 6 535 kb/s
Movie name : [MINI Super-HQ]_Hercules.1997.1080p.BrRip.AC3.x264.One2loadup.com
Encoded date : UTC 2015-07-21 12:49:48
Writing application : mkvmerge v7.8.0 (‘River Man’) 32bit built on Mar 27 2015 16:18:02
Writing library : libebml v1.3.1 + libmatroska v1.4.2

Video
ID : 1
Format : AVC
Format/Info : Advanced Video Codec
Format profile : [email protected]
Format settings : CABAC / 4 Ref Frames
Format settings, CABAC : Yes
Format settings, ReFrames : 4 frames
Codec ID : V_MPEG4/ISO/AVC
Duration : 1 h 33 min
Bit rate : 5 443 kb/s
Width : 1 920 pixels
Height : 1 080 pixels
Display aspect ratio : 16:9
Frame rate mode : Constant
Frame rate : 23.976 (24000/1001) FPS
Color space : YUV
Chroma subsampling : 4:2:0
Bit depth : 8 bits
Scan type : Progressive
Bits/(Pixel*Frame) : 0.109
Stream size : 3.54 GiB (83%)
Title : [MINI Super-HQ]_Hercules.1997.1080p.BrRip.AC3.x264.One2loadup.com
Writing library : x264 core 142 r2431 ac76440
Encoding settings : cabac=1 / ref=4 / deblock=1:1:1 / analyse=0x3:0x133 / me=umh / subme=11 / psy=1 / psy_rd=0.40:0.00 / mixed_ref=1 / me_range=32 / chroma_me=1 / trellis=2 / 8x8dct=1 / cqm=0 / deadzone=21,11 / fast_pskip=0 / chroma_qp_offset=-2 / threads=6 / lookahead_threads=1 / sliced_threads=0 / nr=0 / decimate=1 / interlaced=0 / bluray_compat=0 / constrained_intra=0 / bframes=5 / b_pyramid=2 / b_adapt=2 / b_bias=0 / direct=3 / weightb=1 / open_gop=0 / weightp=2 / keyint=240 / keyint_min=23 / scenecut=40 / intra_refresh=0 / rc_lookahead=50 / rc=2pass / mbtree=1 / bitrate=5443 / ratetol=1.0 / qcomp=0.60 / qpmin=0 / qpmax=69 / qpstep=4 / cplxblur=20.0 / qblur=0.5 / vbv_maxrate=50000 / vbv_bufsize=50000 / nal_hrd=none / filler=0 / ip_ratio=1.40 / aq=1:0.60
Default : Yes
Forced : No

Audio #1
ID : 2
Format : AC-3
Format/Info : Audio Coding 3
Commercial name : Dolby Digital
Codec ID : A_AC3
Duration : 1 h 32 min
Bit rate mode : Constant
Bit rate : 448 kb/s
Channel(s) : 6 channels
Channel layout : L R C LFE Ls Rs
Sampling rate : 48.0 kHz
Frame rate : 31.250 FPS (1536 SPF)
Bit depth : 16 bits
Compression mode : Lossy
Delay relative to video : 19 s 100 ms
Stream size : 297 MiB (7%)
Language : Thai
Service kind : Complete Main
Default : Yes
Forced : No

Audio #2
ID : 3
Format : AC-3
Format/Info : Audio Coding 3
Commercial name : Dolby Digital
Codec ID : A_AC3
Duration : 1 h 33 min
Bit rate mode : Constant
Bit rate : 640 kb/s
Channel(s) : 6 channels
Channel layout : L R C LFE Ls Rs
Sampling rate : 48.0 kHz
Frame rate : 31.250 FPS (1536 SPF)
Bit depth : 16 bits
Compression mode : Lossy
Stream size : 427 MiB (10%)
Language : English
Service kind : Complete Main
Default : No
Forced : No

Text #1
ID : 4
Format : VobSub
Muxing mode : zlib
Codec ID : S_VOBSUB
Codec ID/Info : Picture based subtitle format used on DVDs
Duration : 1 h 32 min
Bit rate : 2 090 b/s
Count of elements : 1293
Stream size : 1.38 MiB (0%)
Language : Thai
Default : No
Forced : No

Text #2
ID : 5
Format : UTF-8
Codec ID : S_TEXT/UTF8
Codec ID/Info : UTF-8 Plain Text
Duration : 1 h 32 min
Bit rate : 74 b/s
Count of elements : 1579
Stream size : 50.6 KiB (0%)
Language : English
Default : No
Forced : No

Menu
00:00:00.000 : en:Program Start
00:00:32.824 : en:The Gospel Truth
00:02:28.690 : en:Festivities on Mt. Olympus
00:05:16.566 : en:Hades
00:07:55.392 : en:The Fates Reveal the Future to Hades
00:10:59.617 : en:Hercules Is Kidnapped
00:14:23.196 : en:Jerk-Ules
00:18:28.649 : en:Go the Distance
00:20:12.628 : en:Hercules Sets Out for the Temple of Zeus
00:21:01.469 : en:The Search for Philoctetes
00:25:29.987 : en:Call Me Phil
00:28:21.325 : en:One Last Hope
00:32:08.927 : en:A Damsel in Distress
00:35:20.744 : en:Megara
00:39:12.308 : en:The Big Olive – Thebes
00:44:26.247 : en:The Battle with the Hydra
00:48:29.156 : en:Zero to Hero
00:51:32.548 : en:Hades’ Plan on the Verge of Disaster
00:53:47.391 : en:Progress Report to Zeus
00:55:20.651 : en:At the Villa
00:57:49.633 : en:The End of a Great Day
01:01:18.341 : en:I Won’t Say (I’m in Love)
01:03:47.615 : en:Herc’s Weakness
01:07:44.978 : en:Hades’ Dirty Deal
01:10:27.890 : en:Hades Releases the Titans
01:15:17.513 : en:Inspiration From Phil
01:17:08.457 : en:Hercules Heads for Mt. Olympus
01:19:13.332 : en:The Fates Cut the Thread
01:20:55.100 : en:Hercules Makes a Deal with Hades
01:23:44.478 : en:Reunion on Mt. Olympus
01:26:01.239 : en:A Star Is Born
01:27:03.176 : en:End Credits

DOWNLOAD


PART01 |||| PART02 |||| PART03 |||| PART04 |||| PART05

PART01 |||| PART02 |||| PART03 |||| PART04 |||| PART05

PART01 |||| PART02 |||| PART03 |||| PART04 |||| PART05

PART01 |||| PART02 |||| PART03 |||| PART04 |||| PART05


Leave A Reply

Your email address will not be published.

%d bloggers like this: