[MINI Super-HQ] Gone Girl (2014) เล่นซ่อนหาย [1080p] [พากย์ไทย 5.1 + เสียงอังกฤษ DTS] [บรรยายไทย + อังกฤษ] [เสียงไทย + ซับไทย] [OPENLOAD]

0

Gone Girl (2014) เล่นซ่อนหาย

โหลดหนัง Gone Girl (2014) เล่นซ่อนหาย 

Gone Girl - Das perfekte Opfer (2014) 2h 29min | Drama, Mystery, Thriller | 2 October 2014 (Germany) Summary: With his wife's disappearance having become the focus of an intense media circus, a man sees the spotlight turned on him when it's suspected that he may not be innocent.
Countries: USALanguages: English

เรื่องย่อ Gone Girl (2014) เล่นซ่อนหาย

ในวันครบรอบแต่งงานปีที่ 5 นิค (Ben Affleck) ดันปะกาศว่า เอมี่ (Rosamund Pike) ภรรยาของเขาได้หายตัวไป มีการระดมกำลังของตำรวจและมีภาพของนิคที่มีความสุขกับชีวิตที่พังทลายแพร่สะพัดตามสื่อ หลังจากที่เขาได้โกหก หลอกลวง และสร้างภาพได้ไม่นาน ทุกคนต่างตั้งคำถามชวนหดหู่แบบเดียวกันว่า นิค ดันฆ่าภรรยาตัวเองหรือเปล่า?!!

Complete name : [MINI Super-HQ]_Gone.Girl.2014.1080p.BrRip.DTS.One2loadup.com.mkv
Format : Matroska
Format version : Version 4
File size : 3.99 GiB
Duration : 2 h 29 min
Overall bit rate : 3 832 kb/s
Movie name : [MINI Super-HQ]_Gone.Girl.2014.1080p.BrRip.DTS.One2loadup.com
Encoded date : UTC 2010-02-22 21:41:31
Writing application : mkvmerge v5.9.0 (‘On The Loose’) built on Dec 9 2012 15:37:01
Writing library : libebml v1.3.0 + libmatroska v1.4.0

Video
ID : 1
Format : AVC
Format/Info : Advanced Video Codec
Format profile : [email protected]
Format settings : CABAC / 4 Ref Frames
Format settings, CABAC : Yes
Format settings, ReFrames : 4 frames
Codec ID : V_MPEG4/ISO/AVC
Duration : 2 h 29 min
Bit rate : 2 500 kb/s
Width : 1 920 pixels
Height : 800 pixels
Display aspect ratio : 2.40:1
Frame rate mode : Constant
Frame rate : 23.976 (23976/1000) FPS
Color space : YUV
Chroma subsampling : 4:2:0
Bit depth : 8 bits
Scan type : Progressive
Bits/(Pixel*Frame) : 0.068
Stream size : 2.66 GiB (67%)
Title : [MINI Super-HQ]_Gone.Girl.2014.1080p.BrRip.DTS.One2loadup.com
Writing library : x264 core 142 r2491M 24e4fed
Encoding settings : cabac=1 / ref=4 / deblock=1:-1:-1 / analyse=0x3:0x113 / me=umh / subme=9 / psy=1 / psy_rd=1.00:0.15 / mixed_ref=1 / me_range=24 / chroma_me=1 / trellis=2 / 8x8dct=1 / cqm=0 / deadzone=21,11 / fast_pskip=1 / chroma_qp_offset=-3 / threads=32 / lookahead_threads=4 / sliced_threads=0 / nr=0 / decimate=1 / interlaced=0 / bluray_compat=0 / constrained_intra=0 / bframes=3 / b_pyramid=2 / b_adapt=1 / b_bias=0 / direct=1 / weightb=1 / open_gop=0 / weightp=2 / keyint=250 / keyint_min=25 / scenecut=40 / intra_refresh=0 / rc_lookahead=50 / rc=2pass / mbtree=1 / bitrate=2500 / ratetol=1.0 / qcomp=0.60 / qpmin=0 / qpmax=69 / qpstep=4 / cplxblur=20.0 / qblur=0.5 / vbv_maxrate=31250 / vbv_bufsize=31250 / nal_hrd=none / filler=0 / ip_ratio=1.40 / aq=3:1.00
Language : English
Default : Yes
Forced : No

Audio #1
ID : 2
Format : AC-3
Format/Info : Audio Coding 3
Commercial name : Dolby Digital
Codec ID : A_AC3
Duration : 2 h 29 min
Bit rate mode : Constant
Bit rate : 448 kb/s
Channel(s) : 6 channels
Channel layout : L R C LFE Ls Rs
Sampling rate : 48.0 kHz
Frame rate : 31.250 FPS (1536 SPF)
Bit depth : 16 bits
Compression mode : Lossy
Stream size : 478 MiB (12%)
Title : Thai BluRay Master
Language : English
Service kind : Complete Main
Default : No
Forced : No

Audio #2
ID : 3
Format : DTS
Format/Info : Digital Theater Systems
Codec ID : A_DTS
Duration : 2 h 29 min
Bit rate mode : Constant
Bit rate : 755 kb/s
Channel(s) : 6 channels
Channel layout : C L R Ls Rs LFE
Sampling rate : 48.0 kHz
Frame rate : 93.750 FPS (512 SPF)
Bit depth : 24 bits
Compression mode : Lossy
Stream size : 804 MiB (20%)
Title : English DTS
Language : English
Default : No
Forced : No

Text #1
ID : 4
Format : VobSub
Codec ID : S_VOBSUB
Codec ID/Info : Picture based subtitle format used on DVDs
Title : Thai 480p
Language : Thai
Default : No
Forced : No

Text #2
ID : 5
Format : VobSub
Codec ID : S_VOBSUB
Codec ID/Info : Picture based subtitle format used on DVDs
Title : Thai 720p
Language : Thai
Default : No
Forced : No

Text #3
ID : 6
Format : VobSub
Codec ID : S_VOBSUB
Codec ID/Info : Picture based subtitle format used on DVDs
Title : Thai 1080p
Language : Thai
Default : Yes
Forced : Yes

Text #4
ID : 7
Format : VobSub
Codec ID : S_VOBSUB
Codec ID/Info : Picture based subtitle format used on DVDs
Title : Thai 1080p Out
Language : Thai
Default : No
Forced : No

Text #5
ID : 8
Format : VobSub
Codec ID : S_VOBSUB
Codec ID/Info : Picture based subtitle format used on DVDs
Title : Thai 1080p Out [BIG]
Language : Thai
Default : No
Forced : No

Text #6
ID : 9
Format : VobSub
Codec ID : S_VOBSUB
Codec ID/Info : Picture based subtitle format used on DVDs
Title : Thai 1080p BIG
Language : Thai
Default : No
Forced : No

Text #7
ID : 10
Format : PGS
Codec ID : S_HDMV/PGS
Codec ID/Info : Picture based subtitle format used on BDs/HD-DVDs
Title : Thai PGS
Language : Thai
Default : No
Forced : No

Text #8
ID : 11
Format : PGS
Codec ID : S_HDMV/PGS
Codec ID/Info : Picture based subtitle format used on BDs/HD-DVDs
Title : Thai PGS Out
Language : Thai
Default : No
Forced : No

Text #9
ID : 12
Format : VobSub
Codec ID : S_VOBSUB
Codec ID/Info : Picture based subtitle format used on DVDs
Title : English
Language : English
Default : No
Forced : No

Menu
00:00:00.043 : en:Chapter 01
00:03:27.917 : en:Chapter 02
00:06:57.794 : en:Chapter 03
00:08:19.500 : en:Chapter 04
00:11:58.552 : en:Chapter 05
00:15:01.443 : en:Chapter 06
00:18:13.469 : en:Chapter 07
00:19:56.697 : en:Chapter 08
00:21:43.053 : en:Chapter 09
00:23:53.809 : en:Chapter 10
00:28:34.839 : en:Chapter 11
00:31:32.475 : en:Chapter 12
00:34:39.037 : en:Chapter 13
00:40:51.158 : en:Chapter 14
00:44:37.343 : en:Chapter 15
00:46:57.775 : en:Chapter 16
00:49:19.666 : en:Chapter 17
00:54:13.293 : en:Chapter 18
01:00:06.646 : en:Chapter 19
01:03:16.169 : en:Chapter 20
01:06:08.674 : en:Chapter 21
01:12:56.957 : en:Chapter 22
01:15:12.968 : en:Chapter 23
01:19:54.416 : en:Chapter 24
01:21:56.079 : en:Chapter 25
01:27:24.115 : en:Chapter 26
01:28:12.497 : en:Chapter 27
01:33:28.521 : en:Chapter 28
01:39:34.470 : en:Chapter 29
01:46:26.673 : en:Chapter 30
01:50:46.474 : en:Chapter 31
01:56:40.578 : en:Chapter 32
01:59:06.057 : en:Chapter 33
02:02:23.004 : en:Chapter 34
02:05:35.029 : en:Chapter 35
02:12:30.777 : en:Chapter 36
02:16:12.749 : en:Chapter 37
02:19:56.890 : en:Chapter 38
02:22:42.263 : en:Chapter 39
02:24:15.607 : en:Chapter 40

DOWNLOAD


PART01 |||| PART02 |||| PART03 |||| PART04

PART01 |||| PART02 |||| PART03 |||| PART04

PART01 |||| PART02 |||| PART03 |||| PART04

PART01 |||| PART02 |||| PART03 |||| PART04


Leave A Reply

Your email address will not be published.

%d bloggers like this: