โหลดหนัง HD MINI-HD SUPER-HQ Full-HD 1080p VIP Master Zoom ซูม หนังใหม่ ออนไลน์ มาสเตอร์ ไทย จีน ฝรั่ง การ์ตูน

[MINI Super-HQ] Get Smart (2008) เก็ท สมาร์ท พยัคฆ์ฉลาด เก็กไม่เลิก [1080p] [พากย์ไทย 2.0 + อังกฤษ 5.1] [บรรยายไทย + อังกฤษ] [เสียงไทย + ซับไทย] [ONE2UP]

0

Get Smart (2008) เก็ท สมาร์ท พยัคฆ์ฉลาด เก็กไม่เลิก

โหลดหนัง Get Smart (2008) เก็ท สมาร์ท พยัคฆ์ฉลาด เก็กไม่เลิก 

เรื่องย่อ Get Smart (2008) เก็ท สมาร์ท พยัคฆ์ฉลาด เก็กไม่เลิก

ใน โลกของสายลับ ชายคนเดียวเท่านั้นที่ต้องยกให้ เขาคือ สมาร์ท! สตีฟ คาเรล เข้าเป็นสมาชิกหน่วย คอนโทรล กับบท แม็กซ์เวล สมาร์ท สายลับน้องใหม่ที่ว่าถึงความสามารถคงลำบาก แต่ถ้าพูดถึงโอกาสล่ะก้อ ไม่มีคำว่าดวงจู๋ ในภาพยนตร์แอ็คชั่นเบาสมองสุดมันส์ที่พาเขาปะทะแผนสะ ท้านโลกของเหล่าสายลับ จากองค์กรร้ายนาม เคออส แอน แฮ็ทธาเวย์ ประกบคู่กับแม็กซ์ ในบทสายลับหมายเลข 99 พยัคฆ์สาวสวยฝีมืออันตราย โดยได้ผู้กำกับปีเตอร์ ซีกัล (The Longest Yard) มากุมบังเหียน นำทีมดารา (อาทิ เดอะ ร็อค และ อลัน อาร์กิ้น) ลุยภารกิจกู้โลก สุดฮาที่มาพร้อมอุปกรณ์ไฮเทคอันน่าทึ่งของแม็กซ์ และบรรดาเครื่องมือสายลับ จากคู่หนุ่มเนิร์ดนักประดิษฐ์ บรู๊ซ (มาซิ โอกะ) และลอยด์ (เนท ทอร์เรนซ์) มาหัวเราะ ตื่นเต้น และเก็กกันเต็มที่ในเก็ท สมาร์ท พยัคฆ์ฉลาด เก็กไม่เลิก คืออาวุธร้ายที่จะทำลายความเครียดให้หมดสิ้น

Complete name : [MINI Super-HQ]_Get.Smart.2008.1080p.BluRay.AC3.x264.One2loadup.com.mkv
Format : Matroska
Format version : Version 4 / Version 2
File size : 3.75 GiB
Duration : 1 h 49 min
Overall bit rate : 4 888 kb/s
Movie name : [MINI Super-HQ]_Get.Smart.2008.1080p.BluRay.AC3.x264.One2loadup.com
Encoded date : UTC 2015-02-14 00:46:35
Writing application : mkvmerge v7.2.0 (‘On Every Street’) 64bit built on Sep 13 2014 15:52:10
Writing library : libebml v1.3.0 + libmatroska v1.4.1
Cover : Yes
Attachments : cover_land.png / cover.png

Video
ID : 1
Format : AVC
Format/Info : Advanced Video Codec
Format profile : [email protected]
Format settings : CABAC / 4 Ref Frames
Format settings, CABAC : Yes
Format settings, ReFrames : 4 frames
Codec ID : V_MPEG4/ISO/AVC
Duration : 1 h 49 min
Bit rate : 4 000 kb/s
Width : 1 920 pixels
Height : 1 072 pixels
Display aspect ratio : 16:9
Frame rate mode : Constant
Frame rate : 23.976 (24000/1001) FPS
Color space : YUV
Chroma subsampling : 4:2:0
Bit depth : 8 bits
Scan type : Progressive
Bits/(Pixel*Frame) : 0.081
Stream size : 3.05 GiB (81%)
Title : [MINI Super-HQ]_Get.Smart.2008.1080p.BluRay.AC3.x264.One2loadup.com
Writing library : x264 core 120
Encoding settings : cabac=1 / ref=1 / deblock=1:0:0 / analyse=0x1:0x111 / me=hex / subme=2 / psy=1 / psy_rd=1.00:0.00 / mixed_ref=0 / me_range=16 / chroma_me=1 / trellis=0 / 8x8dct=0 / cqm=0 / deadzone=21,11 / fast_pskip=1 / chroma_qp_offset=0 / threads=6 / sliced_threads=0 / nr=0 / decimate=1 / interlaced=0 / bluray_compat=0 / constrained_intra=0 / bframes=3 / b_pyramid=2 / b_adapt=1 / b_bias=0 / direct=1 / weightb=1 / open_gop=0 / weightp=1 / keyint=240 / keyint_min=24 / scenecut=40 / intra_refresh=0 / rc_lookahead=10 / rc=abr / mbtree=1 / bitrate=4000 / ratetol=1.0 / qcomp=0.60 / qpmin=3 / qpmax=69 / qpstep=4 / ip_ratio=1.40 / aq=1:1.00
Language : English
Default : Yes
Forced : No
Color range : Limited
Color primaries : BT.709
Transfer characteristics : BT.709
Matrix coefficients : BT.709

Audio #1
ID : 2
Format : AC-3
Format/Info : Audio Coding 3
Codec ID : A_AC3
Duration : 1 h 49 min
Bit rate mode : Constant
Bit rate : 224 kb/s
Channel(s) : 2 channels
Channel positions : Front: L R
Sampling rate : 48.0 kHz
Frame rate : 31.250 FPS (1536 SPF)
Bit depth : 16 bits
Compression mode : Lossy
Stream size : 175 MiB (5%)
Title : AC3 MASTER
Language : Thai
Service kind : Complete Main
Default : Yes
Forced : Yes

Audio #2
ID : 3
Format : AC-3
Format/Info : Audio Coding 3
Codec ID : A_AC3
Duration : 1 h 49 min
Bit rate mode : Constant
Bit rate : 640 kb/s
Channel(s) : 6 channels
Channel positions : Front: L C R, Side: L R, LFE
Sampling rate : 48.0 kHz
Frame rate : 31.250 FPS (1536 SPF)
Bit depth : 16 bits
Compression mode : Lossy
Stream size : 503 MiB (13%)
Title : AC3 BDMASTER
Language : English
Service kind : Complete Main
Default : No
Forced : No

Text #1
ID : 4
Format : VobSub
Codec ID : S_VOBSUB
Codec ID/Info : Picture based subtitle format used on DVDs
Duration : 1 h 49 min
Bit rate : 7 872 b/s
Count of elements : 1341
Stream size : 6.17 MiB (0%)
Title : 1080P YELLOW
Language : Thai
Default : Yes
Forced : Yes

Text #2
ID : 5
Format : VobSub
Codec ID : S_VOBSUB
Codec ID/Info : Picture based subtitle format used on DVDs
Duration : 1 h 49 min
Bit rate : 7 886 b/s
Count of elements : 1341
Stream size : 6.18 MiB (0%)
Title : 1080P
Language : Thai
Default : No
Forced : No

Text #3
ID : 6
Format : VobSub
Codec ID : S_VOBSUB
Codec ID/Info : Picture based subtitle format used on DVDs
Duration : 1 h 49 min
Bit rate : 2 439 b/s
Count of elements : 1341
Stream size : 1.91 MiB (0%)
Title : 480P AS
Language : Thai
Default : No
Forced : No

Text #4
ID : 7
Format : VobSub
Codec ID : S_VOBSUB
Codec ID/Info : Picture based subtitle format used on DVDs
Duration : 1 h 49 min
Bit rate : 2 213 b/s
Count of elements : 1342
Stream size : 1.73 MiB (0%)
Title : 480P FS
Language : Thai
Default : No
Forced : No

Text #5
ID : 8
Format : VobSub
Codec ID : S_VOBSUB
Codec ID/Info : Picture based subtitle format used on DVDs
Duration : 1 h 49 min
Bit rate : 3 791 b/s
Count of elements : 1345
Stream size : 2.96 MiB (0%)
Title : DVD
Language : Thai
Default : No
Forced : No

Text #6
ID : 9
Format : UTF-8
Codec ID : S_TEXT/UTF8
Codec ID/Info : UTF-8 Plain Text
Duration : 1 h 49 min
Bit rate : 124 b/s
Count of elements : 1344
Stream size : 99.5 KiB (0%)
Title : SRT OCR ZAKKY
Language : Thai
Default : No
Forced : No

Text #7
ID : 10
Format : UTF-8
Codec ID : S_TEXT/UTF8
Codec ID/Info : UTF-8 Plain Text
Duration : 1 h 42 min
Bit rate : 63 b/s
Count of elements : 1294
Stream size : 47.6 KiB (0%)
Title : SRT
Language : English
Default : No
Forced : No

Text #8
ID : 11
Format : PGS
Codec ID : S_HDMV/PGS
Codec ID/Info : Picture based subtitle format used on BDs/HD-DVDs
Duration : 1 h 49 min
Bit rate : 33.8 kb/s
Count of elements : 2684
Stream size : 26.5 MiB (1%)
Title : TSA
Language : Thai
Default : No
Forced : No

DOWNLOAD


PART01 |||| PART02 |||| PART03 |||| PART04

PART01 |||| PART02 |||| PART03 |||| PART04

PART01 |||| PART02 |||| PART03 |||| PART04

PART01 |||| PART02 |||| PART03 |||| PART04


Leave A Reply

Your email address will not be published.

%d bloggers like this: