[MINI Super-HQ] Galveston (2018) ไถ่เธอที่เมืองบาป [1080p] [พากย์ไทย 5.1 + เสียงอังกฤษ DTS] [บรรยายไทย + อังกฤษ] [เสียงไทย + ซับไทย] [OPENLOAD]

0

Galveston (2018) ไถ่เธอที่เมืองบาป

โหลดหนัง Galveston (2018) ไถ่เธอที่เมืองบาป

Galveston (2018) 1h 31min | Action, Crime, Drama | 4 April 2019 (Netherlands) Summary: After escaping a set up, a dying hitman returns to his hometown of Galveston where he plans his revenge.
Countries: USALanguages: English

เรื่องย่อ Galveston (2018) ไถ่เธอที่เมืองบาป

นักฆ่าฝีมือดี รอย โคดี้ (เบน ฟอสเตอร์) ได้รับแจ้งว่าเขาป่วยเป็นมะเร็งปอดและกำลังจะตายในไม่ช้า หลังรู้ข่าวร้ายไม่นานรอยถูกเจ้านายสั่งให้ไปเก็บเป้าหมายโดยห้ามใช้ปืนเด็ดขาดเขาหารู้ไม่ว่าจริงๆ แล้วนั่นคือแผนการของเจ้านายเพื่อเก็บเขาแทนแต่นอกจากรอยจะหนีออกมาได้แล้วเขายังช่วยเหลือ ร็อคกี้ (แอล แฟนนิง) หญิงสาววัย 19 ปีที่ถูกจับตัวไว้ที่นั่นด้วย ทั้งคู่เดินทางออกนอกเมืองไปยัง กัลเวสตันบ้านเกิดของรอยซึ่งเขากะจะกบดานอยู่ที่นั่นสักพักแล้ววางแผนล้างแค้น แต่การจะไปถึงกัลเวสตันได้นั้นไม่ง่ายอย่างที่คิด นอกจากจะถูกเหล่านักฆ่าตามล่ารอยและร็อคกี้ยังมีเหตุให้ต้องหยุดกลางทางหลายครั้ง หนึ่งในนั้นคือการแวะรับเอา ทิฟฟานี (คู่แฝด แอนนิสตัน-ทินสลีย์ ไพรซ์)
น้องสาวของร็อคกี้ร่วมเดินทางไปยังกัลเวสตันด้วยกัน! !!

Complete name : [MINI Super-HQ]_Galveston.2018.1080p.BrRip.DTS.x264.One2loadup.com.mkv
Format : Matroska
Format version : Version 4
File size : 3.87 GiB
Duration : 1 h 33 min
Overall bit rate : 5 912 kb/s
Movie name : [MINI Super-HQ]_Galveston.2018.1080p.BrRip.DTS.x264.One2loadup.com
Encoded date : UTC 2010-02-22 21:41:31
Writing application : mkvmerge v5.9.0 (‘On The Loose’) built on Dec 9 2012 15:37:01
Writing library : libebml v1.3.0 + libmatroska v1.4.0

Video
ID : 1
Format : AVC
Format/Info : Advanced Video Codec
Format profile : [email protected]
Format settings : CABAC / 4 Ref Frames
Format settings, CABAC : Yes
Format settings, ReFrames : 4 frames
Codec ID : V_MPEG4/ISO/AVC
Duration : 1 h 33 min
Bit rate : 4 606 kb/s
Width : 1 920 pixels
Height : 804 pixels
Display aspect ratio : 2.40:1
Frame rate mode : Constant
Frame rate : 24.000 FPS
Color space : YUV
Chroma subsampling : 4:2:0
Bit depth : 8 bits
Scan type : Progressive
Bits/(Pixel*Frame) : 0.124
Stream size : 3.00 GiB (78%)
Title : [MINI Super-HQ]_Galveston.2018.1080p.BrRip.DTS.x264.One2loadup.com
Writing library : x264 core 130 r2273 b3065e6
Encoding settings : cabac=1 / ref=3 / deblock=1:0:0 / analyse=0x3:0x113 / me=umh / subme=11 / psy=1 / psy_rd=1.00:0.00 / mixed_ref=1 / me_range=48 / chroma_me=1 / trellis=2 / 8x8dct=1 / cqm=0 / deadzone=21,11 / fast_pskip=1 / chroma_qp_offset=-2 / threads=12 / lookahead_threads=1 / sliced_threads=0 / nr=0 / decimate=1 / interlaced=0 / bluray_compat=0 / constrained_intra=0 / bframes=3 / b_pyramid=2 / b_adapt=1 / b_bias=0 / direct=1 / weightb=1 / open_gop=0 / weightp=2 / keyint=240 / keyint_min=24 / scenecut=40 / intra_refresh=0 / rc_lookahead=40 / rc=2pass / mbtree=1 / bitrate=4606 / ratetol=1.0 / qcomp=0.60 / qpmin=0 / qpmax=69 / qpstep=4 / cplxblur=20.0 / qblur=0.5 / ip_ratio=1.40 / aq=1:1.00
Language : English
Default : Yes
Forced : No
Color range : Limited
Color primaries : BT.709
Transfer characteristics : BT.709
Matrix coefficients : BT.709

Audio #1
ID : 2
Format : AC-3
Format/Info : Audio Coding 3
Commercial name : Dolby Digital
Codec ID : A_AC3
Duration : 1 h 33 min
Bit rate mode : Constant
Bit rate : 448 kb/s
Channel(s) : 6 channels
Channel layout : L R C LFE Ls Rs
Sampling rate : 48.0 kHz
Frame rate : 31.250 FPS (1536 SPF)
Bit depth : 16 bits
Compression mode : Lossy
Stream size : 300 MiB (8%)
Title : Thai DVD Master
Language : Thai
Service kind : Complete Main
Default : Yes
Forced : Yes

Audio #2
ID : 3
Format : DTS
Format/Info : Digital Theater Systems
Codec ID : A_DTS
Duration : 1 h 33 min
Bit rate mode : Constant
Bit rate : 755 kb/s
Channel(s) : 6 channels
Channel layout : C L R Ls Rs LFE
Sampling rate : 48.0 kHz
Frame rate : 93.750 FPS (512 SPF)
Bit depth : 24 bits
Compression mode : Lossy
Stream size : 506 MiB (13%)
Title : English DTS
Language : English
Default : No
Forced : No

Text #1
ID : 4
Format : VobSub
Codec ID : S_VOBSUB
Codec ID/Info : Picture based subtitle format used on DVDs
Title : Thai 480p From DVD Master
Language : Thai
Default : No
Forced : No

Text #2
ID : 5
Format : VobSub
Codec ID : S_VOBSUB
Codec ID/Info : Picture based subtitle format used on DVDs
Title : Thai 720p
Language : Thai
Default : No
Forced : No

Text #3
ID : 6
Format : VobSub
Codec ID : S_VOBSUB
Codec ID/Info : Picture based subtitle format used on DVDs
Title : Thai 1080p
Language : Thai
Default : Yes
Forced : Yes

Text #4
ID : 7
Format : VobSub
Codec ID : S_VOBSUB
Codec ID/Info : Picture based subtitle format used on DVDs
Title : Thai 1080p Yellow
Language : Thai
Default : No
Forced : No

Text #5
ID : 8
Format : VobSub
Codec ID : S_VOBSUB
Codec ID/Info : Picture based subtitle format used on DVDs
Title : Thai 1080p Out
Language : Thai
Default : No
Forced : No

Text #6
ID : 9
Format : VobSub
Codec ID : S_VOBSUB
Codec ID/Info : Picture based subtitle format used on DVDs
Title : Thai 1080p BIG
Language : Thai
Default : No
Forced : No

Text #7
ID : 10
Format : VobSub
Codec ID : S_VOBSUB
Codec ID/Info : Picture based subtitle format used on DVDs
Title : Thai 1080p Out [BIG]
Language : Thai
Default : No
Forced : No

Text #8
ID : 11
Format : PGS
Codec ID : S_HDMV/PGS
Codec ID/Info : Picture based subtitle format used on BDs/HD-DVDs
Title : Thai PGS
Language : Thai
Default : No
Forced : No

Text #9
ID : 12
Format : PGS
Codec ID : S_HDMV/PGS
Codec ID/Info : Picture based subtitle format used on BDs/HD-DVDs
Title : Thai PGS Yellow
Language : Thai
Default : No
Forced : No

Text #10
ID : 13
Format : PGS
Codec ID : S_HDMV/PGS
Codec ID/Info : Picture based subtitle format used on BDs/HD-DVDs
Title : Thai PGS Out
Language : Thai
Default : No
Forced : No

Text #11
ID : 14
Format : PGS
Codec ID : S_HDMV/PGS
Codec ID/Info : Picture based subtitle format used on BDs/HD-DVDs
Title : English
Language : English
Default : No
Forced : No

Menu
00:00:00.000 : en:Chapter 1
00:05:47.667 : en:Chapter 2
00:10:47.417 : en:Chapter 3
00:16:56.208 : en:Chapter 4
00:23:17.625 : en:Chapter 5
00:30:23.208 : en:Chapter 6
00:35:43.667 : en:Chapter 7
00:41:01.750 : en:Chapter 8
00:47:51.458 : en:Chapter 9
00:54:25.500 : en:Chapter 10
01:03:36.000 : en:Chapter 11
01:08:33.792 : en:Chapter 12
01:12:25.250 : en:Chapter 13
01:17:02.625 : en:Chapter 14
01:21:33.500 : en:Chapter 15
01:27:49.083 : en:Chapter 16

DOWNLOAD


PART01 |||| PART02 |||| PART03 |||| PART04

PART01 |||| PART02 |||| PART03 |||| PART04

PART01 |||| PART02 |||| PART03 |||| PART04

PART01 |||| PART02 |||| PART03 |||| PART04


Leave A Reply

Your email address will not be published.

%d bloggers like this: