เว็บโหลดหนัง HD MINI-HD SUPER-HQ Full-HD 1080p One2up VIP Master Zoom ซูม หนังใหม่ ออนไลน์ มาสเตอร์ ไทย จีน ฝรั่ง การ์ตูน

[MINI Super-HQ] Fireworks (2017) ระหว่างเรา และดอกไม้ไฟ [1080p] [พากย์ไทย 5.1 + เสียงญี่ปุ่น DTS] [บรรยายไทย + อังกฤษ] [เสียงไทย + ซับไทย] [FILECLOUD]

1

Fireworks (2017) ระหว่างเรา และดอกไม้ไฟ

โหลดหนัง Fireworks (2017) ระหว่างเรา และดอกไม้ไฟ

เรื่องย่อ Fireworks (2017) ระหว่างเรา และดอกไม้ไฟ

ในวันหนึ่งของช่วงฤดูร้อน โนริมิจิ (มาซากิ ซูดะ) ยูสึเกะ (มาโมรุ มิยาโนะ) และเพื่อนๆ ได้ถกเถียงกันว่า ดอกไม้ไฟดูเป็นทรงกลมหรือทรงแบน ถ้ามองจากด้านข้าง คำถามนี้เกิดขึ้นเมื่อ นาซึนะ (ซูสุ ฮิโรเสะ) ต้องเผชิญกับปัญหาทางบ้าน โนริมิจิและยูสึเกะตัดสินใจว่ายน้ำแข่งขันโดยมีเดิมพ ันเป็นการเดทกับนาซึนะในคืนที่มีดอกไม้ไฟนาซึนะจึงตัดสินใจหนีออกจากบ้านไปพร้อมกับผู้ชนะ เรื่องราวของความรักระหว่างเด็กหนุ่มและหญิงสาวในคืน ดอกไม้ไฟ และจุดเริ่มต้นของความสัมพันธ์ที่ก้าวผ่านคำว่าเพื่อน!!!

Complete name : [MINI Super-HQ]_Fireworks.2017.1080p.BrRip.DTS.x264.One2loadup.com.mkv
Format : Matroska
Format version : Version 4 / Version 2
File size : 3.92 GiB
Duration : 1 h 30 min
Overall bit rate : 6 229 kb/s
Movie name : [MINI Super-HQ]_Fireworks.2017.1080p.BrRip.DTS.x264.One2loadup.com
Encoded date : UTC 2010-02-22 21:41:31
Writing application : mkvmerge v5.9.0 (‘On The Loose’) built on Dec 9 2012 15:37:01
Writing library : libebml v1.3.0 + libmatroska v1.4.0

Video
ID : 1
Format : AVC
Format/Info : Advanced Video Codec
Format profile : [email protected]
Format settings : CABAC / 4 Ref Frames
Format settings, CABAC : Yes
Format settings, ReFrames : 4 frames
Codec ID : V_MPEG4/ISO/AVC
Duration : 1 h 30 min
Bit rate : 4 909 kb/s
Width : 1 920 pixels
Height : 1 080 pixels
Display aspect ratio : 16:9
Frame rate mode : Constant
Frame rate : 23.976 FPS
Color space : YUV
Chroma subsampling : 4:2:0
Bit depth : 8 bits
Scan type : Progressive
Bits/(Pixel*Frame) : 0.099
Stream size : 3.08 GiB (79%)
Title : [MINI Super-HQ]_Fireworks.2017.1080p.BrRip.DTS.x264.One2loadup.com
Writing library : x264 core 130 r2273 b3065e6
Encoding settings : cabac=1 / ref=3 / deblock=1:0:0 / analyse=0x3:0x113 / me=umh / subme=11 / psy=1 / psy_rd=1.00:0.00 / mixed_ref=1 / me_range=48 / chroma_me=1 / trellis=2 / 8x8dct=1 / cqm=0 / deadzone=21,11 / fast_pskip=1 / chroma_qp_offset=-2 / threads=10 / lookahead_threads=1 / sliced_threads=0 / nr=0 / decimate=1 / interlaced=0 / bluray_compat=0 / constrained_intra=0 / bframes=3 / b_pyramid=2 / b_adapt=1 / b_bias=0 / direct=1 / weightb=1 / open_gop=0 / weightp=2 / keyint=240 / keyint_min=24 / scenecut=40 / intra_refresh=0 / rc_lookahead=40 / rc=2pass / mbtree=1 / bitrate=4909 / ratetol=1.0 / qcomp=0.60 / qpmin=0 / qpmax=69 / qpstep=4 / cplxblur=20.0 / qblur=0.5 / ip_ratio=1.40 / aq=1:1.00
Language : Japanese
Default : Yes
Forced : No
Color range : Limited
Color primaries : BT.709
Transfer characteristics : BT.709
Matrix coefficients : BT.709

Audio #1
ID : 2
Format : AC-3
Format/Info : Audio Coding 3
Codec ID : A_AC3
Duration : 1 h 30 min
Bit rate mode : Constant
Bit rate : 448 kb/s
Channel(s) : 6 channels
Channel positions : Front: L C R, Side: L R, LFE
Sampling rate : 48.0 kHz
Frame rate : 31.250 FPS (1536 SPF)
Bit depth : 16 bits
Compression mode : Lossy
Stream size : 289 MiB (7%)
Title : Thai DVD Master
Language : Thai
Service kind : Complete Main
Default : Yes
Forced : Yes

Audio #2
ID : 3
Format : DTS
Format/Info : Digital Theater Systems
Codec ID : A_DTS
Duration : 1 h 30 min
Bit rate mode : Constant
Bit rate : 755 kb/s
Channel(s) : 6 channels
Channel positions : Front: L C R, Side: L R, LFE
Sampling rate : 48.0 kHz
Frame rate : 93.750 FPS (512 SPF)
Bit depth : 24 bits
Compression mode : Lossy
Stream size : 486 MiB (12%)
Title : Japanese DTS
Language : Japanese
Default : No
Forced : No

Text #1
ID : 4
Format : VobSub
Codec ID : S_VOBSUB
Codec ID/Info : Picture based subtitle format used on DVDs
Title : Thai 480p From DVD Master
Language : Thai
Default : No
Forced : No

Text #2
ID : 5
Format : VobSub
Codec ID : S_VOBSUB
Codec ID/Info : Picture based subtitle format used on DVDs
Title : Thai 720p
Language : Thai
Default : No
Forced : No

Text #3
ID : 6
Format : VobSub
Codec ID : S_VOBSUB
Codec ID/Info : Picture based subtitle format used on DVDs
Title : Thai 1080p
Language : Thai
Default : Yes
Forced : Yes

Text #4
ID : 7
Format : VobSub
Codec ID : S_VOBSUB
Codec ID/Info : Picture based subtitle format used on DVDs
Title : Thai 1080p Yellow
Language : Thai
Default : No
Forced : No

Text #5
ID : 8
Format : VobSub
Codec ID : S_VOBSUB
Codec ID/Info : Picture based subtitle format used on DVDs
Title : Thai 1080p BIG
Language : Thai
Default : No
Forced : No

Text #6
ID : 9
Format : PGS
Codec ID : S_HDMV/PGS
Codec ID/Info : Picture based subtitle format used on BDs/HD-DVDs
Title : Thai PGS
Language : Thai
Default : No
Forced : No

Text #7
ID : 10
Format : PGS
Codec ID : S_HDMV/PGS
Codec ID/Info : Picture based subtitle format used on BDs/HD-DVDs
Title : Thai PGS Yellow
Language : Thai
Default : No
Forced : No

Text #8
ID : 11
Format : PGS
Codec ID : S_HDMV/PGS
Codec ID/Info : Picture based subtitle format used on BDs/HD-DVDs
Title : English
Language : English
Default : No
Forced : No

Menu
00:00:00.000 : en:Chapter 1
00:01:41.851 : en:Chapter 2
00:02:32.151 : en:Chapter 3
00:08:01.314 : en:Chapter 4
00:11:11.587 : en:Chapter 5
00:17:12.531 : en:Chapter 6
00:19:47.436 : en:Chapter 7
00:25:20.435 : en:Chapter 8
00:30:23.238 : en:Chapter 9
00:33:41.394 : en:Chapter 10
00:36:05.079 : en:Chapter 11
00:39:23.778 : en:Chapter 12
00:43:45.539 : en:Chapter 13
00:47:31.348 : en:Chapter 14
00:53:24.326 : en:Chapter 15
00:57:20.645 : en:Chapter 16
01:00:32.295 : en:Chapter 17
01:07:20.536 : en:Chapter 18
01:13:29.279 : en:Chapter 19
01:18:22.114 : en:Chapter 20
01:25:10.688 : en:Chapter 21

DOWNLOAD


PART01 |||| PART02 |||| PART03 |||| PART04

PART01 |||| PART02 |||| PART03 |||| PART04

PART01 |||| PART02 |||| PART03 |||| PART04

PART01 |||| PART02 |||| PART03 |||| PART04


1 Comment
  1. VNPlayer Channel
    VNPlayer Channel says

    ขอบคุณครับ แอดมินผู้ใจดี ^^

Leave A Reply

Your email address will not be published.

%d bloggers like this: