โหลดหนัง HD MINI-HD SUPER-HQ Full-HD 1080p VIP Master Zoom ซูม หนังใหม่ ออนไลน์ มาสเตอร์ ไทย จีน ฝรั่ง การ์ตูน

[MINI Super-HQ] Divergent (2014) ไดเวอร์เจนท์ คนแยกโลก ภาค 1 [1080p] [พากย์ไทย DTS + เสียงอังกฤษ DTS] [บรรยายไทย + อังกฤษ] [เสียงไทย + ซับไทย]

0

โหลดหนัง  Divergent (2014) ไดเวอร์เจนท์ คนแยกโลก ภาค 1

เรื่องย่อ Divergent (2014) ไดเวอร์เจนท์ คนแยกโลก ภาค 1

Divergent สร้างจากวรรณกรรมเยาวชนขายดีของ เวโรนิก้า รอทห์ (Veronica Roth) ว่าด้วยเรื่องราวของ สังคมอันเสื่อมทรามชิคาโก้ถูกแบ่งออกเป็น 5 ส่วน ซึ่งได้แก่ Candor กลุ่มคนที่ยึดถือในความจริง Abnegation กลุ่มที่ยึดมั่นในการเสียสละตนเอง, Dauntless กลุ่มคนที่ยึดมั่นในความหาญกล้า, Amity กลุ่มคนที่ยึดถือในความสมานฉันท์ และ Erudite กลุ่มคนที่ยึดถือในความรู้และสติปัญญา โดยในทุก ๆ ปีจะมีวันที่กำหนดให้ เด็กอายุ 16 ปีทุกคนเลือกว่าตัวเองจะไปอยู่ในส่วนไหน ซึ่งหลังจากเลือกแล้วก็จะต้องอยู่กับการตัดสินใจของต ัวเองตลอดไป และสำหรับ บีทริซ (Beatrice) สิ่งที่เธอต้องการ คือการอยู่ร่วมกับครอบครัว รวมทั้งเป็นตัวเองในสิ่งที่เธอฝันมาตลอด ซึ่งเธอจำเป็นต้องเลือกระหว่างสิ่งใดสิ่งหนึ่ง ทำให้เธอตัดสินใจทำในสิ่งที่คนไม่คาดคิด แม้กระทั่งตัวเธอเองระหว่างการเริ่มต้นที่เต็มไปด้วย การแข่งขันนี้ บีทริซ (Beatrice) ตัดสินใจเปลี่ยนชื่อตัวเองเป็น ทริส (Tris) และร่วมเดินทางไปกับเพื่อน ๆ ที่ต้องเดินทางตามการตัดสินใจของตัวเองไปด้วยเหมือนก ัน ซึ่งมีการทดสอบสุดหินทั้งทางร่างกายและจิตใจผ่านโปรแ กรมจำลองภาพ ที่บางอันก็ส่งผลกระทบมาถึงชีวิตจริงด้วย ในเวลานี้เองที่ทริสต้องมองให้ออกว่าใครกันแน่คือเพื ่อนแท้ รวมทั้งความสัมพันธ์กับชายหนุ่มที่ก่อตัวขึ้น จะไปในทางเดียวกับทางเดินชีวิตที่เธอตัดสินใจเอาไว้ไ ด้หรือเปล่าอย่างไรก็ดี ทริสยังคงมีความลับบางอย่างซ่อนอยู่ ความลับที่เธอไม่อาจบอกใคร เพราะถูกเตือนเอาไว้ว่าการเปิดเผยมันอาจหมายถึงความต าย เมื่อเผชิญกับความกดดันและอุปสรรคมากมาย ทริสได้เรียนรู้ว่าความลับของเธอมีความสำคัญมากพอจะช ่วยเหลือคนที่รักได้ แต่มันอาจมาพร้อมกับความพินาศของเธอด้วย

Complete name : [MINI Super-HQ]_Divergent.2014.1080p.BrRip.x264.DTS.One2loadup.com.mkv
Format : Matroska
Format version : Version 4 / Version 2
File size : 4.47 GiB
Duration : 2 h 19 min
Overall bit rate : 4 586 kb/s
Movie name : [MINI Super-HQ]_Divergent.2014.1080p.BrRip.x264.DTS.One2loadup.com
Encoded date : UTC 2010-02-22 21:41:31
Writing application : mkvmerge v5.9.0 (‘On The Loose’) built on Dec 9 2012 15:37:01
Writing library : libebml v1.3.0 + libmatroska v1.4.0

Video
ID : 1
Format : AVC
Format/Info : Advanced Video Codec
Format profile : [email protected]
Format settings : CABAC / 4 Ref Frames
Format settings, CABAC : Yes
Format settings, ReFrames : 4 frames
Codec ID : V_MPEG4/ISO/AVC
Duration : 2 h 19 min
Bit rate : 3 003 kb/s
Width : 1 920 pixels
Height : 800 pixels
Display aspect ratio : 2.40:1
Frame rate mode : Constant
Frame rate : 23.810 FPS
Color space : YUV
Chroma subsampling : 4:2:0
Bit depth : 8 bits
Scan type : Progressive
Bits/(Pixel*Frame) : 0.082
Stream size : 2.91 GiB (65%)
Title : [MINI Super-HQ]_Divergent.2014.1080p.BrRip.x264.DTS.One2loadup.com
Writing library : x264 core 130 r2273 b3065e6
Encoding settings : cabac=1 / ref=4 / deblock=1:0:0 / analyse=0x3:0x113 / me=umh / subme=11 / psy=1 / psy_rd=1.00:0.00 / mixed_ref=1 / me_range=32 / chroma_me=1 / trellis=2 / 8x8dct=1 / cqm=0 / deadzone=21,11 / fast_pskip=1 / chroma_qp_offset=-2 / threads=12 / lookahead_threads=1 / sliced_threads=0 / nr=0 / decimate=1 / interlaced=0 / bluray_compat=0 / constrained_intra=0 / bframes=4 / b_pyramid=2 / b_adapt=2 / b_bias=0 / direct=1 / weightb=1 / open_gop=0 / weightp=2 / keyint=240 / keyint_min=24 / scenecut=40 / intra_refresh=0 / rc_lookahead=40 / rc=2pass / mbtree=1 / bitrate=3003 / ratetol=1.0 / qcomp=0.60 / qpmin=0 / qpmax=69 / qpstep=4 / cplxblur=20.0 / qblur=0.5 / ip_ratio=1.40 / aq=1:1.00
Language : English
Default : Yes
Forced : No
Color range : Limited
Color primaries : BT.709
Transfer characteristics : BT.709
Matrix coefficients : BT.709

Audio #1
ID : 2
Format : DTS
Format/Info : Digital Theater Systems
Codec ID : A_DTS
Duration : 2 h 19 min
Bit rate mode : Constant
Bit rate : 755 kb/s
Channel(s) : 6 channels
Channel positions : Front: L C R, Side: L R, LFE
Sampling rate : 48.0 kHz
Frame rate : 93.750 FPS (512 SPF)
Bit depth : 24 bits
Compression mode : Lossy
Stream size : 754 MiB (16%)
Title : Thai DTS BluRay Master
Language : Thai
Default : Yes
Forced : Yes

Audio #2
ID : 3
Format : DTS
Format/Info : Digital Theater Systems
Codec ID : A_DTS
Duration : 2 h 19 min
Bit rate mode : Constant
Bit rate : 755 kb/s
Channel(s) : 6 channels
Channel positions : Front: L C R, Side: L R, LFE
Sampling rate : 48.0 kHz
Frame rate : 93.750 FPS (512 SPF)
Bit depth : 24 bits
Compression mode : Lossy
Stream size : 754 MiB (16%)
Title : English DTS
Language : English
Default : No
Forced : No

Text #1
ID : 4
Format : VobSub
Codec ID : S_VOBSUB
Codec ID/Info : Picture based subtitle format used on DVDs
Title : Thai 480p
Language : Thai
Default : No
Forced : No

Text #2
ID : 5
Format : VobSub
Codec ID : S_VOBSUB
Codec ID/Info : Picture based subtitle format used on DVDs
Title : Thai 720p
Language : Thai
Default : No
Forced : No

Text #3
ID : 6
Format : VobSub
Codec ID : S_VOBSUB
Codec ID/Info : Picture based subtitle format used on DVDs
Title : Thai 1080p BluRay Master
Language : Thai
Default : Yes
Forced : Yes

Text #4
ID : 7
Format : VobSub
Codec ID : S_VOBSUB
Codec ID/Info : Picture based subtitle format used on DVDs
Title : Thai 1080p BIG
Language : Thai
Default : No
Forced : No

Text #5
ID : 8
Format : VobSub
Codec ID : S_VOBSUB
Codec ID/Info : Picture based subtitle format used on DVDs
Title : Thai 1080p Out
Language : Thai
Default : No
Forced : No

Text #6
ID : 9
Format : VobSub
Codec ID : S_VOBSUB
Codec ID/Info : Picture based subtitle format used on DVDs
Title : Thai 1080p Out [BIG]
Language : Thai
Default : No
Forced : No

Text #7
ID : 10
Format : PGS
Codec ID : S_HDMV/PGS
Codec ID/Info : Picture based subtitle format used on BDs/HD-DVDs
Title : Thai PGS BluRay Master
Language : Thai
Default : No
Forced : No

Text #8
ID : 11
Format : PGS
Codec ID : S_HDMV/PGS
Codec ID/Info : Picture based subtitle format used on BDs/HD-DVDs
Title : Thai PGS Out
Language : Thai
Default : No
Forced : No

Text #9
ID : 12
Format : VobSub
Codec ID : S_VOBSUB
Codec ID/Info : Picture based subtitle format used on DVDs
Title : English
Language : English
Default : No
Forced : No

Menu
00:00:00.000 : en:Chapter 1
00:07:57.477 : en:Chapter 2
00:15:29.595 : en:Chapter 3
00:23:31.035 : en:Chapter 4
00:33:56.618 : en:Chapter 5
00:38:52.956 : en:Chapter 6
00:44:24.328 : en:Chapter 7
00:53:37.506 : en:Chapter 8
01:00:02.682 : en:Chapter 9
01:06:32.071 : en:Chapter 10
01:13:19.603 : en:Chapter 11
01:20:08.137 : en:Chapter 12
01:28:41.441 : en:Chapter 13
01:35:54.957 : en:Chapter 14
01:46:19.373 : en:Chapter 15
01:57:54.692 : en:Chapter 16

DOWNLOAD


PART01 |||| PART02 |||| PART03 |||| PART04 |||| PART05

PART01 |||| PART02 |||| PART03 |||| PART04 |||| PART05

PART01 |||| PART02 |||| PART03 |||| PART04 |||| PART05

PART01 |||| PART02 |||| PART03 |||| PART04 |||| PART05


Leave A Reply

Your email address will not be published.

%d bloggers like this: