[MINI Super-HQ] Dhoom 3 (2013) มหกรรมล่า คนเหนือเมฆ ภาค 3 [1080p] [พากย์ไทย 5.1 + เสียงฮินดี DTS] [บรรยายไทย + อังกฤษ] [เสียงไทย + ซับไทย] [OPENLOAD]

0

Dhoom 3 (2013)

โหลดหนัง  Dhoom 3 (2013) มหกรรมล่า คนเหนือเมฆ ภาค 3

Dhoom:3 (2013) 2h 52min | Action, Thriller | 20 December 2013 (Netherlands) Summary: When Sahir, a circus entertainer trained in magic and acrobatics, turns into a thief to take down a corrupt bank in Chicago that ruined his father, Indian officers Jai and Ali are called to catch him.
Countries: IndiaLanguages: Hindi, English, Tamil, Telugu, Arabic

เรื่องย่อ Dhoom 3 (2013) มหกรรมล่า คนเหนือเมฆ ภาค 3

เรื่องราวของสุดยอดตำรวจพิเศษ ไจ (อภิเษก พัจจัน) และคู่หู คู่ฮา อย่าง อาลี (อูเดย์ โชปรา) กับภารกิจในการไล่จับอาชญากรสุดล้ำเก่งฉกาจด้านเทคโน โลยีไฮเทคอันดับต้นๆของประเทศ อย่าง จอร์แดน (อาเมียร์ ข่าน) และ รัดธิกา (คาทริน่า เคฟ) ที่การันตีว่าจะต้องเป็นการไล่ล่าที่มันส์ที่สุดแบบไม่เคยมีมาก่อน คอหนังแอ็คชั่นจะได้เห็นการต่อสู้ไล่ล่า ทุกรูปแบบด้วย ยานพาหนะ รถยนตร์ มอเตอร์ไซค์ จนไปถึง เฮลิคอร์ปเตอร์ และ ความสนุกลุ้นไล่ล่าไปกับบทภาพยนตร์ที่เข้มข้นอย่างที่เรียกได้ว่าไม่เคยมีในวงการบอลลีวู้ดมาก่อน ยืนยันด้วยการกวาดรายได้สูงสุดในประวัติศาสตร์ หนังเปิดตัวสูงสุดในอเมริกา

Complete name : [MINI Super-HQ]_3.Dhoom.2014.1080p.BrRip.DTS.x264.One2loadup.com.mkv
Format : Matroska
Format version : Version 4
File size : 4.35 GiB
Duration : 2 h 51 min
Overall bit rate : 3 642 kb/s
Movie name : [MINI Super-HQ]_3.Dhoom.2014.1080p.BrRip.DTS.x264.One2loadup.com
Encoded date : UTC 2010-02-22 21:41:31
Writing application : mkvmerge v5.9.0 (‘On The Loose’) built on Dec 9 2012 15:37:01
Writing library : libebml v1.3.0 + libmatroska v1.4.0

Video
ID : 1
Format : AVC
Format/Info : Advanced Video Codec
Format profile : [email protected]
Format settings : CABAC / 4 Ref Frames
Format settings, CABAC : Yes
Format settings, ReFrames : 4 frames
Codec ID : V_MPEG4/ISO/AVC
Duration : 2 h 51 min
Bit rate : 2 404 kb/s
Width : 1 920 pixels
Height : 816 pixels
Display aspect ratio : 2.35:1
Frame rate mode : Constant
Frame rate : 23.810 FPS
Color space : YUV
Chroma subsampling : 4:2:0
Bit depth : 8 bits
Scan type : Progressive
Bits/(Pixel*Frame) : 0.064
Stream size : 2.90 GiB (67%)
Title : [MINI Super-HQ]_3.Dhoom.2014.1080p.BrRip.DTS.x264.One2loadup.com
Writing library : x264 core 130 r2273 b3065e6
Encoding settings : cabac=1 / ref=4 / deblock=1:0:0 / analyse=0x3:0x113 / me=umh / subme=11 / psy=1 / psy_rd=1.00:0.00 / mixed_ref=1 / me_range=32 / chroma_me=1 / trellis=2 / 8x8dct=1 / cqm=0 / deadzone=21,11 / fast_pskip=1 / chroma_qp_offset=-2 / threads=12 / lookahead_threads=1 / sliced_threads=0 / nr=0 / decimate=1 / interlaced=0 / bluray_compat=0 / constrained_intra=0 / bframes=4 / b_pyramid=2 / b_adapt=2 / b_bias=0 / direct=1 / weightb=1 / open_gop=0 / weightp=2 / keyint=240 / keyint_min=24 / scenecut=40 / intra_refresh=0 / rc_lookahead=40 / rc=2pass / mbtree=1 / bitrate=2404 / ratetol=1.0 / qcomp=0.60 / qpmin=0 / qpmax=69 / qpstep=4 / cplxblur=20.0 / qblur=0.5 / ip_ratio=1.40 / aq=1:1.00
Language : English
Default : Yes
Forced : No
Color range : Limited
Color primaries : BT.709
Transfer characteristics : BT.709
Matrix coefficients : BT.709

Audio #1
ID : 2
Format : AC-3
Format/Info : Audio Coding 3
Commercial name : Dolby Digital
Codec ID : A_AC3
Duration : 2 h 51 min
Bit rate mode : Constant
Bit rate : 384 kb/s
Channel(s) : 6 channels
Channel layout : L R C LFE Ls Rs
Sampling rate : 48.0 kHz
Frame rate : 31.250 FPS (1536 SPF)
Bit depth : 16 bits
Compression mode : Lossy
Stream size : 470 MiB (11%)
Title : Thai DVD Master
Language : Thai
Service kind : Complete Main
Default : Yes
Forced : Yes

Audio #2
ID : 3
Format : DTS
Format/Info : Digital Theater Systems
Codec ID : A_DTS
Duration : 2 h 51 min
Bit rate mode : Constant
Bit rate : 755 kb/s
Channel(s) : 6 channels
Channel layout : C L R Ls Rs LFE
Sampling rate : 48.0 kHz
Frame rate : 93.750 FPS (512 SPF)
Bit depth : 24 bits
Compression mode : Lossy
Stream size : 923 MiB (21%)
Title : Hindi DTS
Language : Hindi
Default : No
Forced : No

Text #1
ID : 4
Format : VobSub
Codec ID : S_VOBSUB
Codec ID/Info : Picture based subtitle format used on DVDs
Title : Thai 480p DVD Master
Language : Thai
Default : No
Forced : No

Text #2
ID : 5
Format : VobSub
Codec ID : S_VOBSUB
Codec ID/Info : Picture based subtitle format used on DVDs
Language : Thai
Default : No
Forced : No

Text #3
ID : 6
Format : VobSub
Codec ID : S_VOBSUB
Codec ID/Info : Picture based subtitle format used on DVDs
Title : Thai 1080p
Language : Thai
Default : Yes
Forced : Yes

Text #4
ID : 7
Format : VobSub
Codec ID : S_VOBSUB
Codec ID/Info : Picture based subtitle format used on DVDs
Title : Thai 1080p Yellow
Language : Thai
Default : No
Forced : No

Text #5
ID : 8
Format : VobSub
Codec ID : S_VOBSUB
Codec ID/Info : Picture based subtitle format used on DVDs
Title : Thai 1080p Out
Language : Thai
Default : No
Forced : No

Text #6
ID : 9
Format : VobSub
Codec ID : S_VOBSUB
Codec ID/Info : Picture based subtitle format used on DVDs
Title : Thai 1080p BIG
Language : Thai
Default : No
Forced : No

Text #7
ID : 10
Format : VobSub
Codec ID : S_VOBSUB
Codec ID/Info : Picture based subtitle format used on DVDs
Title : Thai 1080p Out [BIG]
Language : Thai
Default : No
Forced : No

Text #8
ID : 11
Format : PGS
Codec ID : S_HDMV/PGS
Codec ID/Info : Picture based subtitle format used on BDs/HD-DVDs
Title : Thai PGS
Language : Thai
Default : No
Forced : No

Text #9
ID : 12
Format : PGS
Codec ID : S_HDMV/PGS
Codec ID/Info : Picture based subtitle format used on BDs/HD-DVDs
Title : Thai PGS Out
Language : Thai
Default : No
Forced : No

Text #10
ID : 13
Format : VobSub
Codec ID : S_VOBSUB
Codec ID/Info : Picture based subtitle format used on DVDs
Title : English
Language : English
Default : No
Forced : No

Menu
00:00:00.000 : en:Chapter 1
00:10:33.791 : en:Chapter 2
00:13:59.083 : en:Chapter 3
00:22:16.125 : en:Chapter 4
00:25:17.541 : en:Chapter 5
00:34:42.958 : en:Chapter 6
00:43:39.166 : en:Chapter 7
00:48:19.833 : en:Chapter 8
01:11:15.000 : en:Chapter 9
01:18:25.291 : en:Chapter 10
01:26:10.416 : en:Chapter 11
01:40:41.083 : en:Chapter 12
01:46:03.958 : en:Chapter 13
02:05:42.833 : en:Chapter 14
02:19:06.000 : en:Chapter 15
02:26:26.541 : en:Chapter 16
02:37:58.000 : en:Chapter 17
02:44:23.875 : en:Chapter 18
02:45:43.125 : en:Chapter 19
02:47:18.708 : en:Chapter 20

DOWNLOAD


PART01 |||| PART02 |||| PART03 |||| PART04 |||| PART05

PART01 |||| PART02 |||| PART03 |||| PART04 |||| PART05

PART01 |||| PART02 |||| PART03 |||| PART04 |||| PART05

PART01 |||| PART02 |||| PART03 |||| PART04 |||| PART05


Leave A Reply

Your email address will not be published.

%d bloggers like this: