เว็บโหลดหนัง HD MINI-HD SUPER-HQ Full-HD 1080p One2up VIP Cornfile Mekafile Master Zoom ซูม หนังใหม่ ออนไลน์ มาสเตอร์ ไทย จีน ฝรั่ง การ์ตูน

[MINI Super-HQ] Deadpool (2016) เดดพูล [1080p] [พากย์ไทย 5.1 + อังกฤษ DTS] [บรรยายไทย + อังกฤษ] [เสียงไทย + ซับไทย] [ONE2UP]

0

โหลดหนัง  Deadpool (2016) เดดพูล

เรื่องย่อ Deadpool (2016) เดดพูล

สร้างจากหนังสือการ์ตูนยอดฮิตของ Marvel ถ่ายทอดเรื่องราวที่มาที่ไปของอดีตเจ้าหน้าที่หน่วยเฉพาะกิจที่ผันตัวเองเป็นทหารรับจ้าง เวด วิลสัน เขาต้องผ่านการทดลองลับทำให้เขามีพลังเยียวยาตัวเองได้อย่างรวดเร็ว และได้แปลงร่างเป็นเดดพูล เขาเป็นนักฆ่าที่มีนิสัยยียวนกวนประสาท ช่างพูดช่างเจรจารวดเร็ว เขาจะใส่หน้ากากสีแดงไว้เพื่อปกปิดบาดแผลบนใบหน้า และออกตามล่าตัวการที่เกือบทำลายชีวิตของเขา

Complete name : [MINI Super-HQ]_Deadpool.2016.1080p.DTS.x264.One2loadup.com.mkv
Format : Matroska
Format version : Version 4 / Version 2
File size : 3.89 GiB
Duration : 1 h 48 min
Overall bit rate : 5 139 kb/s
Movie name : [MINI Super-HQ]_Deadpool.2016.1080p.DTS.x264.One2loadup.com
Encoded date : UTC 2016-04-29 10:39:35
Writing application : mkvmerge v8.9.0 (‘Father Daughter’) 32bit
Writing library : libebml v1.3.3 + libmatroska v1.4.4

Video
ID : 1
Format : AVC
Format/Info : Advanced Video Codec
Format profile : [email protected]
Format settings : CABAC / 4 Ref Frames
Format settings, CABAC : Yes
Format settings, ReFrames : 4 frames
Codec ID : V_MPEG4/ISO/AVC
Duration : 1 h 48 min
Bit rate : 3 766 kb/s
Width : 1 920 pixels
Height : 800 pixels
Display aspect ratio : 2.40:1
Frame rate mode : Constant
Frame rate : 23.976 FPS
Color space : YUV
Chroma subsampling : 4:2:0
Bit depth : 8 bits
Scan type : Progressive
Bits/(Pixel*Frame) : 0.102
Stream size : 2.90 GiB (75%)
Title : [MINI Super-HQ]_Deadpool.2016.1080p.DTS.x264.One2loadup.com
Writing library : x264 core 146 r2538 121396c
Encoding settings : cabac=1 / ref=4 / deblock=1:-3:-3 / analyse=0x3:0x113 / me=umh / subme=11 / psy=1 / psy_rd=1.00:0.00 / mixed_ref=1 / me_range=64 / chroma_me=1 / trellis=2 / 8x8dct=1 / cqm=0 / deadzone=21,11 / fast_pskip=0 / chroma_qp_offset=-2 / threads=6 / lookahead_threads=1 / sliced_threads=0 / nr=0 / decimate=1 / interlaced=0 / bluray_compat=0 / constrained_intra=0 / bframes=4 / b_pyramid=2 / b_adapt=2 / b_bias=0 / direct=3 / weightb=1 / open_gop=0 / weightp=2 / keyint=250 / keyint_min=23 / scenecut=40 / intra_refresh=0 / rc_lookahead=120 / rc=2pass / mbtree=1 / bitrate=3766 / ratetol=1.0 / qcomp=0.60 / qpmin=0 / qpmax=69 / qpstep=4 / cplxblur=20.0 / qblur=0.5 / vbv_maxrate=99999 / vbv_bufsize=99999 / nal_hrd=none / filler=0 / ip_ratio=1.40 / aq=1:1.00
Language : English
Default : Yes
Forced : Yes

Audio #1
ID : 2
Format : AC-3
Format/Info : Audio Coding 3
Codec ID : A_AC3
Duration : 1 h 48 min
Bit rate mode : Constant
Bit rate : 448 kb/s
Channel(s) : 6 channels
Channel positions : Front: L C R, Side: L R, LFE
Sampling rate : 48.0 kHz
Frame rate : 31.250 FPS (1536 SPF)
Bit depth : 16 bits
Compression mode : Lossy
Stream size : 347 MiB (9%)
Title : AC3 5.1 MASTER MiX ITUNES
Language : Thai
Service kind : Complete Main
Default : Yes
Forced : Yes

Audio #2
ID : 3
Format : DTS
Format/Info : Digital Theater Systems
Codec ID : A_DTS
Duration : 1 h 48 min
Bit rate mode : Constant
Bit rate : 755 kb/s
Channel(s) : 6 channels
Channel positions : Front: L C R, Side: L R, LFE
Sampling rate : 48.0 kHz
Frame rate : 93.750 FPS (512 SPF)
Bit depth : 24 bits
Compression mode : Lossy
Stream size : 585 MiB (15%)
Title : DTS
Language : English
Default : No
Forced : No

Text #1
ID : 4
Format : VobSub
Codec ID : S_VOBSUB
Codec ID/Info : Picture based subtitle format used on DVDs
Title : 1080P DN
Language : Thai
Default : No
Forced : No

Text #2
ID : 5
Format : VobSub
Codec ID : S_VOBSUB
Codec ID/Info : Picture based subtitle format used on DVDs
Title : 1080P DN YELLOW
Language : Thai
Default : No
Forced : No

Text #3
ID : 6
Format : VobSub
Muxing mode : zlib
Codec ID : S_VOBSUB
Codec ID/Info : Picture based subtitle format used on DVDs
Title : 1080P DN UNDER
Language : Thai
Default : No
Forced : No

Text #4
ID : 7
Format : VobSub
Codec ID : S_VOBSUB
Codec ID/Info : Picture based subtitle format used on DVDs
Title : 1080P AS
Language : Thai
Default : No
Forced : No

Text #5
ID : 8
Format : VobSub
Codec ID : S_VOBSUB
Codec ID/Info : Picture based subtitle format used on DVDs
Title : 480P AS ZAKKY
Language : Thai
Default : No
Forced : No

Text #6
ID : 9
Format : UTF-8
Codec ID : S_TEXT/UTF8
Codec ID/Info : UTF-8 Plain Text
Title : SRT ITUNES MASTER
Language : Thai
Default : No
Forced : No

Text #7
ID : 10
Format : PGS
Codec ID : S_HDMV/PGS
Codec ID/Info : Picture based subtitle format used on BDs/HD-DVDs
Title : DN
Language : Thai
Default : Yes
Forced : Yes

Text #8
ID : 11
Format : PGS
Codec ID : S_HDMV/PGS
Codec ID/Info : Picture based subtitle format used on BDs/HD-DVDs
Title : DN UNDER
Language : Thai
Default : No
Forced : No

Text #9
ID : 12
Format : PGS
Codec ID : S_HDMV/PGS
Codec ID/Info : Picture based subtitle format used on BDs/HD-DVDs
Title : AS
Language : Thai
Default : No
Forced : No

Text #10
ID : 13
Format : PGS
Muxing mode : zlib
Codec ID : S_HDMV/PGS
Codec ID/Info : Picture based subtitle format used on BDs/HD-DVDs
Title : Forced
Language : English
Default : No
Forced : No

Text #11
ID : 14
Format : PGS
Codec ID : S_HDMV/PGS
Codec ID/Info : Picture based subtitle format used on BDs/HD-DVDs
Title : SDH
Language : English
Default : No
Forced : No

Menu
00:00:00.000 : en:00:00:00.000
00:03:04.726 : en:00:03:04.726
00:05:53.019 : en:00:05:53.019
00:09:30.820 : en:00:09:30.820
00:13:19.090 : en:00:13:19.090
00:16:48.716 : en:00:16:48.716
00:20:12.545 : en:00:20:12.545
00:22:06.408 : en:00:22:06.408
00:27:09.628 : en:00:27:09.628
00:31:58.959 : en:00:31:58.959
00:36:51.709 : en:00:36:51.709
00:41:06.172 : en:00:41:06.172
00:44:45.766 : en:00:44:45.766
00:46:56.605 : en:00:46:56.605
00:50:10.966 : en:00:50:10.966
00:53:18.028 : en:00:53:18.028
00:55:33.038 : en:00:55:33.038
00:59:07.753 : en:00:59:07.753
01:03:05.240 : en:01:03:05.240
01:07:06.439 : en:01:07:06.439
01:09:15.568 : en:01:09:15.568
01:12:29.720 : en:01:12:29.720
01:16:46.393 : en:01:16:46.393
01:20:43.714 : en:01:20:43.714
01:25:53.398 : en:01:25:53.398
01:31:03.792 : en:01:31:03.792
01:34:46.973 : en:01:34:46.973
01:39:52.737 : en:01:39:52.737

DOWNLOAD


PART01 |||| PART02 |||| PART03 |||| PART04

PART01 |||| PART02 |||| PART03 |||| PART04

PART01 |||| PART02 |||| PART03 |||| PART04

PART01 |||| PART02 |||| PART03 |||| PART04


Leave A Reply

Your email address will not be published.

%d bloggers like this: