โหลดหนัง HD MINI-HD SUPER-HQ Full-HD 1080p VIP Master Zoom ซูม หนังใหม่ ออนไลน์ มาสเตอร์ ไทย จีน ฝรั่ง การ์ตูน

[MINI Super-HQ] Date Night (2010) คืนเดทพิสดาร ผิดฝาผิดตัวรั่วยกเมือง [1080p] [พากย์ไทย 5.1 + อังกฤษ DTS] [บรรยายไทย + อังกฤษ] [เสียงไทย + ซับไทย]

0

โหลดหนัง  Date Night (2010) คืนเดทพิสดาร ผิดฝาผิดตัวรั่วยกเมือง

เรื่องย่อ Date Night (2010) คืนเดทพิสดาร ผิดฝาผิดตัวรั่วยกเมือง

Date Night เรื่องราวของ ฟิล เเละ เเคลร์ ฟอสเตอร์ (Tina Fey กับ Steve Carell) ที่ได้มีเเต่ชีวิตเดิมๆทุกวัน ตื่นเช้า ทำอาหาร พาลูกไปโรงเรียน นั่งทำงาน กลับมาถูบ้าน เเละ มีเเต่คืนเดทน่าเบื่อเดิมๆ ซ้ำๆ Phill จึงอยากพาภารยาของไปหาความสนุกบ้าง เขาจึงไปร้าน “กล้ามใหญ่” ใน เเมนฮัตตัน ที่เขาได้ไปโดยไม่ได้จองโต๊ะ จนพนักเรียกชื่อ “ทริปเปิ้ลฮอร์น” พวกเขาจึงได้เเย่งโต๊ะไป จนมีชายเเปลกหน้า 2 คนมาหาพวกเขา เเละได้ให้ส่ง Falshdrive มา พวกเขาพยาบามอธิบาย เเต่ไม่ได้ผล ซึ่งตอนหลัง การไล่ล่าที่เข้าใจผิดจึงเกิดขึ้น

เรื่องนี้ได้ผู้กำกับ Shawn Levy จาก Night At The Museum ทั้ง 2 ภาค เเละ The Pink Panther ซึ่งเขากำกับเเต่หนังตลกไม่ค่อยจะได้เรื่อง (สำหรับผมนะครับ) เพราะเเต่ละมุขนี้ เเป๊ก มั่วซั่วไปหมด ผมไม่ค่อยชอบนัก ยกเว้น Night At The Museum ภาคเเรกที่ดีที่สุดสำหรับผม มาเรื่องนี้ยังคงความเติม เน้น Action Comedy เรื่องราวเเปลกใหม่อย่างเรื่องนี้ ที่เรื่องนี้ขอบอกว่า พัฒนามุขมาบ้าง เป็น มุข ตลกทะลึ่ง เเนวหยาบคาย ทุเรศ ไม่เหมือนหนังที่เขาเคยกำกับที่ได้เรต PG มาครั้งได้เรต PG-13 ที่ได้ใน UK 15 นอกเหนือจากนั้นเเล้ว Location เรื่องนี้ก็สวยดี นักเเสดงเล่นคู่กันได้เยี่ยม มีการผูกเรื่องราวต่างๆได้ยอด

Complete name : Date.Night.2010.1080p.BluRay.H264.One2loadup.com.mkv
Format : Matroska
Format version : Version 4 / Version 2
File size : 3.18 GiB
Duration : 1 h 41 min
Overall bit rate : 4 485 kb/s
Movie name : Date.Night.2010.1080p.BluRay.H264.One2loadup.com
Encoded date : UTC 2017-08-21 03:07:08
Writing application : mkvmerge v14.0.0 (‘Flow’) 64bit
Writing library : libebml v1.3.4 + libmatroska v1.4.5

Video
ID : 1
Format : AVC
Format/Info : Advanced Video Codec
Format profile : [email protected]
Format settings : CABAC / 4 Ref Frames
Format settings, CABAC : Yes
Format settings, ReFrames : 4 frames
Codec ID : V_MPEG4/ISO/AVC
Duration : 1 h 41 min
Bit rate : 2 500 kb/s
Width : 1 920 pixels
Height : 816 pixels
Display aspect ratio : 2.35:1
Frame rate mode : Constant
Frame rate : 23.976 (24000/1001) FPS
Original frame rate : 23.976 (23976/1000) FPS
Color space : YUV
Chroma subsampling : 4:2:0
Bit depth : 8 bits
Scan type : Progressive
Bits/(Pixel*Frame) : 0.067
Stream size : 1.77 GiB (56%)
Title : Date.Night.2010.1080p.BluRay.H264.One2loadup.com
Writing library : x264 core 144 r2525M 40bb568
Encoding settings : cabac=1 / ref=4 / deblock=1:-1:-1 / analyse=0x3:0x113 / me=umh / subme=9 / psy=1 / psy_rd=1.00:0.15 / mixed_ref=1 / me_range=24 / chroma_me=1 / trellis=2 / 8x8dct=1 / cqm=0 / deadzone=21,11 / fast_pskip=1 / chroma_qp_offset=-3 / threads=32 / lookahead_threads=4 / sliced_threads=0 / nr=0 / decimate=1 / interlaced=0 / bluray_compat=0 / constrained_intra=0 / bframes=3 / b_pyramid=2 / b_adapt=1 / b_bias=0 / direct=1 / weightb=1 / open_gop=0 / weightp=2 / keyint=250 / keyint_min=25 / scenecut=40 / intra_refresh=0 / rc_lookahead=50 / rc=2pass / mbtree=1 / bitrate=2500 / ratetol=1.0 / qcomp=0.60 / qpmin=0 / qpmax=69 / qpstep=4 / cplxblur=20.0 / qblur=0.5 / vbv_maxrate=31250 / vbv_bufsize=31250 / nal_hrd=none / filler=0 / ip_ratio=1.40 / aq=3:1.00
Language : English
Default : Yes
Forced : No

Audio #1
ID : 2
Format : AC-3
Format/Info : Audio Coding 3
Codec ID : A_AC3
Duration : 1 h 41 min
Bit rate mode : Constant
Bit rate : 384 kb/s
Channel(s) : 6 channels
Channel positions : Front: L C R, Side: L R, LFE
Sampling rate : 48.0 kHz
Frame rate : 31.250 FPS (1536 SPF)
Bit depth : 16 bits
Compression mode : Lossy
Stream size : 279 MiB (9%)
Language : Thai
Service kind : Complete Main
Default : Yes
Forced : No

Audio #2
ID : 3
Format : DTS
Format/Info : Digital Theater Systems
Codec ID : A_DTS
Duration : 1 h 41 min
Bit rate mode : Constant
Bit rate : 1 509 kb/s
Channel(s) : 6 channels
Channel positions : Front: L C R, Side: L R, LFE
Sampling rate : 48.0 kHz
Frame rate : 93.750 FPS (512 SPF)
Bit depth : 24 bits
Compression mode : Lossy
Stream size : 1.07 GiB (34%)
Language : English
Default : No
Forced : No

Text #1
ID : 4
Format : VobSub
Muxing mode : zlib
Codec ID : S_VOBSUB
Codec ID/Info : Picture based subtitle format used on DVDs
Duration : 1 h 40 min
Bit rate : 11.9 kb/s
Count of elements : 1676
Stream size : 8.57 MiB (0%)
Language : Thai
Default : Yes
Forced : No

Text #2
ID : 5
Format : VobSub
Muxing mode : zlib
Codec ID : S_VOBSUB
Codec ID/Info : Picture based subtitle format used on DVDs
Duration : 1 h 40 min
Bit rate : 2 757 b/s
Count of elements : 1676
Stream size : 1.99 MiB (0%)
Language : Thai
Default : No
Forced : No

Text #3
ID : 6
Format : VobSub
Muxing mode : zlib
Codec ID : S_VOBSUB
Codec ID/Info : Picture based subtitle format used on DVDs
Duration : 1 h 40 min
Bit rate : 11.9 kb/s
Count of elements : 1676
Stream size : 8.56 MiB (0%)
Language : Thai
Default : No
Forced : No

Text #4
ID : 7
Format : VobSub
Muxing mode : zlib
Codec ID : S_VOBSUB
Codec ID/Info : Picture based subtitle format used on DVDs
Duration : 1 h 40 min
Bit rate : 9 737 b/s
Count of elements : 1676
Stream size : 7.02 MiB (0%)
Language : Thai
Default : No
Forced : No

Text #5
ID : 8
Format : PGS
Muxing mode : zlib
Codec ID : S_HDMV/PGS
Codec ID/Info : Picture based subtitle format used on BDs/HD-DVDs
Duration : 1 h 40 min
Bit rate : 48.6 kb/s
Count of elements : 3352
Stream size : 35.0 MiB (1%)
Language : Thai
Default : No
Forced : No

Text #6
ID : 9
Format : PGS
Muxing mode : zlib
Codec ID : S_HDMV/PGS
Codec ID/Info : Picture based subtitle format used on BDs/HD-DVDs
Duration : 1 h 40 min
Bit rate : 40.8 kb/s
Count of elements : 3352
Stream size : 29.4 MiB (1%)
Language : Thai
Default : No
Forced : No

Text #7
ID : 10
Format : PGS
Muxing mode : zlib
Codec ID : S_HDMV/PGS
Codec ID/Info : Picture based subtitle format used on BDs/HD-DVDs
Duration : 1 h 40 min
Bit rate : 40.8 kb/s
Count of elements : 3352
Stream size : 29.4 MiB (1%)
Language : Thai
Default : No
Forced : No

Text #8
ID : 11
Format : UTF-8
Codec ID : S_TEXT/UTF8
Codec ID/Info : UTF-8 Plain Text
Duration : 1 h 40 min
Bit rate : 94 b/s
Count of elements : 1884
Stream size : 69.9 KiB (0%)
Language : English
Default : No
Forced : No

Menu
00:00:00.043 : en:Chapter 1
00:04:37.528 : en:Chapter 2
00:09:02.585 : en:Chapter 3
00:14:25.032 : en:Chapter 4
00:18:36.616 : en:Chapter 5
00:23:43.339 : en:Chapter 6
00:29:07.205 : en:Chapter 7
00:35:39.680 : en:Chapter 8
00:38:58.545 : en:Chapter 9
00:42:40.976 : en:Chapter 10
00:45:29.436 : en:Chapter 11
00:46:59.734 : en:Chapter 12
00:51:48.648 : en:Chapter 13
00:58:35.721 : en:Chapter 14
01:07:14.114 : en:Chapter 15
01:10:25.347 : en:Chapter 16
01:15:17.681 : en:Chapter 17
01:17:42.617 : en:Chapter 18
01:19:50.703 : en:Chapter 19
01:24:01.287 : en:Chapter 20
01:29:00.169 : en:Chapter 21
01:32:08.440 : en:Chapter 22
01:34:31.959 : en:Chapter 23
01:36:26.281 : en:Chapter 24
01:41:35.924 : en:Chapter 25

DOWNLOAD


PART01 |||| PART02 |||| PART03 |||| PART04

PART01 |||| PART02 |||| PART03 |||| PART04

PART01 |||| PART02 |||| PART03 |||| PART04

PART01 |||| PART02 |||| PART03 |||| PART04


Leave A Reply

Your email address will not be published.

%d bloggers like this: