[MINI Super-HQ] Conan The Barbarian (2011) โคแนน นักรบเถื่อน [1080p] [พากย์ไทย 5.1 + เสียงอังกฤษ DTS] [บรรยายไทย + อังกฤษ] [เสียงไทย + ซับไทย] [OPENLOAD]

0

โหลดหนัง  Conan The Barbarian (2011) โคแนน นักรบเถื่อน

Conan the Barbarian (2011) 1h 53min | Action, Adventure, Fantasy | 8 September 2011 (Netherlands) Summary: A vengeful barbarian warrior sets off to get his revenge on the evil warlord who attacked his village and murdered his father when he was a boy.
Countries: USALanguages: English

เรื่องย่อ Conan The Barbarian (2011) โคแนน นักรบเถื่อน

ในยุคสมัยของคนเถื่อน คาลาห์ ซิม (สตีเฟ่น แลง) จ้าวนักรบกลียุคผู้ชั่วร้ายเดินทางไปยังเมืองชิมเมเรียเพื่อขอความช่วยเหลือจาก โคริน (รอน เพิร์ลแมน) ผู้นำนักรบเผ่าชิมเมเรียน เมื่อได้รับการปฏิเสธ ซิงห์จึงจัดการสังหารทุกคนในเผ่า ยกเว้นเพียงเด็กที่ชื่อ โคแนน (เจสัน โมมัว) บุตร ชายคนเดียวของโครินที่หนีรอดออกมาได้ เขาได้รับการเลี้ยงดู ฝึกฝน เติบโตขึ้นมาในกองโจร และเป้าหมายเดียวของโคแนน ก็คือล้างแค้นผู้ที่ทำลายล้างเผ่าของเขาให้ได้!!

Complete name : [MINI Super-HQ]_Conan.The.Barbarian.2011.1080p.BRRip.DTS.One2loadup.com.mkv
Format : Matroska
Format version : Version 4
File size : 3.55 GiB
Duration : 1 h 52 min
Overall bit rate : 4 501 kb/s
Movie name : [MINI Super-HQ]_Conan.The.Barbarian.2011.1080p.BRRip.DTS.One2loadup.com
Encoded date : UTC 2018-01-31 06:26:12
Writing application : mkvmerge v18.0.0 (‘Apricity’) 64-bit
Writing library : libebml v1.3.5 + libmatroska v1.4.8
Cover : Yes
Attachments : cover.jpg

Video
ID : 1
Format : AVC
Format/Info : Advanced Video Codec
Format profile : [email protected]
Format settings : CABAC / 4 Ref Frames
Format settings, CABAC : Yes
Format settings, ReFrames : 4 frames
Codec ID : V_MPEG4/ISO/AVC
Duration : 1 h 52 min
Bit rate : 2 500 kb/s
Width : 1 920 pixels
Height : 800 pixels
Display aspect ratio : 2.40:1
Frame rate mode : Constant
Frame rate : 23.976 (23976/1000) FPS
Color space : YUV
Chroma subsampling : 4:2:0
Bit depth : 8 bits
Scan type : Progressive
Bits/(Pixel*Frame) : 0.068
Stream size : 1.97 GiB (56%)
Title : [MINI Super-HQ]_Conan.The.Barbarian.2011.1080p.BRRip.DTS.One2loadup.com
Writing library : x264 core 148 r2638M 7599210
Encoding settings : cabac=1 / ref=4 / deblock=1:-1:-1 / analyse=0x3:0x113 / me=umh / subme=9 / psy=1 / psy_rd=1.00:0.15 / mixed_ref=1 / me_range=24 / chroma_me=1 / trellis=2 / 8x8dct=1 / cqm=0 / deadzone=21,11 / fast_pskip=1 / chroma_qp_offset=-3 / threads=32 / lookahead_threads=4 / sliced_threads=0 / nr=0 / decimate=1 / interlaced=0 / bluray_compat=0 / constrained_intra=0 / bframes=3 / b_pyramid=2 / b_adapt=2 / b_bias=0 / direct=3 / weightb=1 / open_gop=0 / weightp=2 / keyint=250 / keyint_min=25 / scenecut=40 / intra_refresh=0 / rc_lookahead=50 / rc=2pass / mbtree=1 / bitrate=2500 / ratetol=1.0 / qcomp=0.60 / qpmin=0 / qpmax=69 / qpstep=4 / cplxblur=20.0 / qblur=0.5 / vbv_maxrate=31250 / vbv_bufsize=31250 / nal_hrd=none / filler=0 / ip_ratio=1.40 / aq=3:1.00
Language : English
Default : Yes
Forced : No

Audio #1
ID : 2
Format : AC-3
Format/Info : Audio Coding 3
Commercial name : Dolby Digital
Codec ID : A_AC3
Duration : 1 h 52 min
Bit rate mode : Constant
Bit rate : 448 kb/s
Channel(s) : 6 channels
Channel layout : L R C LFE Ls Rs
Sampling rate : 48.0 kHz
Frame rate : 31.250 FPS (1536 SPF)
Bit depth : 16 bits
Compression mode : Lossy
Stream size : 361 MiB (10%)
Title : Thai AC3 5.1 Master
Language : Thai
Service kind : Complete Main
Default : Yes
Forced : Yes

Audio #2
ID : 3
Format : DTS
Format/Info : Digital Theater Systems
Codec ID : A_DTS
Duration : 1 h 52 min
Bit rate mode : Constant
Bit rate : 1 509 kb/s
Channel(s) : 6 channels
Channel layout : C L R Ls Rs LFE
Sampling rate : 48.0 kHz
Frame rate : 93.750 FPS (512 SPF)
Bit depth : 24 bits
Compression mode : Lossy
Delay relative to video : 20 s 0 ms
Stream size : 1.19 GiB (33%)
Title : Eng DTS 5.1
Language : English
Default : No
Forced : No

Text #1
ID : 4
Format : UTF-8
Codec ID : S_TEXT/UTF8
Codec ID/Info : UTF-8 Plain Text
Duration : 1 h 43 min
Bit rate : 22 b/s
Count of elements : 604
Stream size : 16.7 KiB (0%)
Title : English-SRT
Language : English
Default : No
Forced : No

Text #2
ID : 5
Format : PGS
Muxing mode : zlib
Codec ID : S_HDMV/PGS
Codec ID/Info : Picture based subtitle format used on BDs/HD-DVDs
Duration : 1 h 43 min
Bit rate : 13.5 kb/s
Count of elements : 1200
Stream size : 9.99 MiB (0%)
Title : Thai PGS Tahoma
Language : Thai
Default : No
Forced : No

Text #3
ID : 6
Format : PGS
Muxing mode : zlib
Codec ID : S_HDMV/PGS
Codec ID/Info : Picture based subtitle format used on BDs/HD-DVDs
Duration : 1 h 43 min
Bit rate : 13.5 kb/s
Count of elements : 1200
Stream size : 9.99 MiB (0%)
Title : Thai PGS Tahoma LOW
Language : Thai
Default : No
Forced : No

Text #4
ID : 7
Format : PGS
Muxing mode : zlib
Codec ID : S_HDMV/PGS
Codec ID/Info : Picture based subtitle format used on BDs/HD-DVDs
Duration : 1 h 43 min
Bit rate : 13.2 kb/s
Count of elements : 1200
Stream size : 9.76 MiB (0%)
Title : Thai PGS Freesia
Language : Thai
Default : No
Forced : No

Text #5
ID : 8
Format : PGS
Muxing mode : zlib
Codec ID : S_HDMV/PGS
Codec ID/Info : Picture based subtitle format used on BDs/HD-DVDs
Duration : 1 h 43 min
Bit rate : 13.2 kb/s
Count of elements : 1200
Stream size : 9.76 MiB (0%)
Title : Thai PGS Freesia LOW
Language : Thai
Default : No
Forced : No

Text #6
ID : 9
Format : PGS
Muxing mode : zlib
Codec ID : S_HDMV/PGS
Codec ID/Info : Picture based subtitle format used on BDs/HD-DVDs
Duration : 1 h 43 min
Bit rate : 16.2 kb/s
Count of elements : 1200
Stream size : 12.0 MiB (0%)
Title : Thai PGS Angsana
Language : Thai
Default : Yes
Forced : Yes

Text #7
ID : 10
Format : PGS
Muxing mode : zlib
Codec ID : S_HDMV/PGS
Codec ID/Info : Picture based subtitle format used on BDs/HD-DVDs
Duration : 1 h 43 min
Bit rate : 16.2 kb/s
Count of elements : 1200
Stream size : 12.0 MiB (0%)
Title : Thai PGS Angsana LOW
Language : Thai
Default : No
Forced : No

Text #8
ID : 11
Format : VobSub
Muxing mode : zlib
Codec ID : S_VOBSUB
Codec ID/Info : Picture based subtitle format used on DVDs
Duration : 1 h 43 min
Bit rate : 3 952 b/s
Count of elements : 600
Stream size : 2.93 MiB (0%)
Title : Thai 1080p
Language : Thai
Default : No
Forced : No

Text #9
ID : 12
Format : VobSub
Muxing mode : zlib
Codec ID : S_VOBSUB
Codec ID/Info : Picture based subtitle format used on DVDs
Duration : 1 h 43 min
Bit rate : 3 952 b/s
Count of elements : 600
Stream size : 2.93 MiB (0%)
Title : Thai 1080p LOW
Language : Thai
Default : No
Forced : No

Text #10
ID : 13
Format : VobSub
Muxing mode : zlib
Codec ID : S_VOBSUB
Codec ID/Info : Picture based subtitle format used on DVDs
Duration : 1 h 43 min
Bit rate : 1 175 b/s
Count of elements : 600
Stream size : 893 KiB (0%)
Title : Thai 480p
Language : Thai
Default : No
Forced : No

Text #11
ID : 14
Format : VobSub
Muxing mode : zlib
Codec ID : S_VOBSUB
Codec ID/Info : Picture based subtitle format used on DVDs
Duration : 1 h 43 min
Bit rate : 1 175 b/s
Count of elements : 600
Stream size : 893 KiB (0%)
Title : Thai 480p LOW
Language : Thai
Default : No
Forced : No

DOWNLOAD


PART01 |||| PART02 |||| PART03 |||| PART04

PART01 |||| PART02 |||| PART03 |||| PART04

PART01 |||| PART02 |||| PART03 |||| PART04

PART01 |||| PART02 |||| PART03 |||| PART04


Leave A Reply

Your email address will not be published.

%d bloggers like this: