เว็บโหลดหนัง HD MINI-HD SUPER-HQ Full-HD 1080p One2up VIP Cornfile Mekafile Master Zoom ซูม หนังใหม่ ออนไลน์ มาสเตอร์ ไทย จีน ฝรั่ง การ์ตูน

[MINI Super-HQ] Commuter (2018) นรกใช้มาเกิด [1080p] [พากย์ไทย DTS + อังกฤษ DTS] [บรรยายไทย + อังกฤษ] [เสียงไทย + ซับไทย] [ONE2UP]

0

โหลดหนัง  Commuter (2018) นรกใช้มาเกิด

เรื่องย่อ Commuter (2018) นรกใช้มาเกิด

เรื่องราวของ ไมเคิล (รับบทโดย เลียม นีสัน) หนุ่มใหญ่นักขายประกัน ที่ไป-กลับบ้านและที่ทำงานทุกวันด้วยรถไฟจนเป็นกิจวัตร จนกระทั่งวันหนึ่ง หลังจากที่เขาได้พูดคุยกับคนแปลกหน้าผู้ลึกลับ ไมเคิล ถูกบีบให้เปิดโปงตัวตนของผู้โดยสารคนหนึ่งก่อนที่จะถึงสถานีสุดท้าย เขาต้องแข่งกับเวลาเพื่อแก้ปริศนาแต่ไม่นานเขาตระหนักได้ว่า เขาได้กลายเป็นส่วนของแผนร้ายวินาศกรรมที่ต้องเอาชีวิตของเขาและผู้โดยสารอีกเป็นร้อยมาเดิมพัน

Complete name : [MINI Super-HQ]_Commuter.2018.1080p.BrRip.DTS.x264.One2loadup.com.mkv
Format : Matroska
Format version : Version 4 / Version 2
File size : 3.44 GiB
Duration : 1 h 44 min
Overall bit rate : 4 695 kb/s
Movie name : [MINI Super-HQ]_Commuter.2018.1080p.BrRip.DTS.x264.One2loadup.com
Encoded date : UTC 2018-05-04 05:03:01 / UTC 2018-05-03T23:33:42Z
Writing application : mkvmerge v23.0.0 (‘The Bride Said No’) 64-bit
Writing library : libebml v1.3.6 + libmatroska v1.4.9 / Lavf55.12.0

Video
ID : 1
Format : AVC
Format/Info : Advanced Video Codec
Format profile : [email protected]
Format settings : CABAC / 4 Ref Frames
Format settings, CABAC : Yes
Format settings, ReFrames : 4 frames
Codec ID : V_MPEG4/ISO/AVC
Duration : 1 h 44 min
Bit rate : 1 698 kb/s
Width : 1 920 pixels
Height : 804 pixels
Display aspect ratio : 2.40:1
Frame rate mode : Constant
Frame rate : 23.976 (24000/1001) FPS
Color space : YUV
Chroma subsampling : 4:2:0
Bit depth : 8 bits
Scan type : Progressive
Bits/(Pixel*Frame) : 0.046
Stream size : 1.24 GiB (36%)
Writing library : x264 core 142 r2479 dd79a61
Encoding settings : cabac=1 / ref=1 / deblock=1:0:0 / analyse=0x1:0x111 / me=hex / subme=2 / psy=1 / psy_rd=1.00:0.00 / mixed_ref=0 / me_range=16 / chroma_me=1 / trellis=0 / 8x8dct=0 / cqm=0 / deadzone=21,11 / fast_pskip=1 / chroma_qp_offset=0 / threads=6 / lookahead_threads=2 / sliced_threads=0 / nr=0 / decimate=1 / interlaced=0 / bluray_compat=0 / constrained_intra=0 / bframes=3 / b_pyramid=2 / b_adapt=1 / b_bias=0 / direct=1 / weightb=1 / open_gop=0 / weightp=1 / keyint=240 / keyint_min=24 / scenecut=40 / intra_refresh=0 / rc_lookahead=10 / rc=crf / mbtree=1 / crf=23.0 / qcomp=0.60 / qpmin=0 / qpmax=69 / qpstep=4 / vbv_maxrate=20000 / vbv_bufsize=25000 / crf_max=0.0 / nal_hrd=none / filler=0 / ip_ratio=1.40 / aq=1:1.00
Language : Thai
Default : Yes
Forced : Yes
Color range : Limited
Color primaries : BT.709
Transfer characteristics : BT.709
Matrix coefficients : BT.709
Statistics Tags Issue : mkvmerge v23.0.0 (‘The Bride Said No’) 64-bit 2018-05-04 05:03:01 / mkvmerge v23.0.0 (‘The Bride Said No’) 64-bit 2018-05-04 05:03:01 / UTC 2018-05-03T23:33:42Z
FromStats_BitRate : 1740120
FromStats_Duration : 01:44:55.349000000
FromStats_FrameCount : 150937
FromStats_StreamSize : 1369333524

Audio #1
ID : 2
Format : DTS
Format/Info : Digital Theater Systems
Codec ID : A_DTS
Duration : 1 h 44 min
Bit rate mode : Constant
Bit rate : 755 kb/s
Channel(s) : 6 channels
Channel positions : Front: L C R, Side: L R, LFE
Sampling rate : 48.0 kHz
Frame rate : 93.750 FPS (512 SPF)
Bit depth : 24 bits
Compression mode : Lossy
Delay relative to video : -83 ms
Stream size : 566 MiB (16%)
Title : English DTS
Language : English
Default : No
Forced : No
Statistics Tags Issue : mkvmerge v23.0.0 (‘The Bride Said No’) 64-bit 2018-05-04 05:03:01 / mkvmerge v23.0.0 (‘The Bride Said No’) 64-bit 2018-05-04 05:03:01 / UTC 2018-05-03T23:33:42Z
FromStats_BitRate : 754499
FromStats_Duration : 01:44:55.371000000
FromStats_FrameCount : 590191
FromStats_StreamSize : 593732146

Audio #2
ID : 3
Format : DTS
Format/Info : Digital Theater Systems
Codec ID : A_DTS
Duration : 1 h 44 min
Bit rate mode : Constant
Bit rate : 1 509 kb/s
Channel(s) : 6 channels
Channel positions : Front: L C R, Side: L R, LFE
Sampling rate : 48.0 kHz
Frame rate : 93.750 FPS (512 SPF)
Bit depth : 24 bits
Compression mode : Lossy
Stream size : 1.11 GiB (32%)
Title : Surround
Language : Thai
Default : Yes
Forced : Yes
Statistics Tags Issue : mkvmerge v23.0.0 (‘The Bride Said No’) 64-bit 2018-05-04 05:03:01 / mkvmerge v23.0.0 (‘The Bride Said No’) 64-bit 2018-05-04 05:03:01 / UTC 2018-05-03T23:33:42Z
FromStats_BitRate : 1509000
FromStats_Duration : 01:44:54.976000000
FromStats_FrameCount : 590154
FromStats_StreamSize : 1187389848

Audio #3
ID : 4
Format : AC-3
Format/Info : Audio Coding 3
Codec ID : A_AC3
Duration : 1 h 44 min
Bit rate mode : Constant
Bit rate : 640 kb/s
Channel(s) : 6 channels
Channel positions : Front: L C R, Side: L R, LFE
Sampling rate : 48.0 kHz
Frame rate : 31.250 FPS (1536 SPF)
Bit depth : 16 bits
Compression mode : Lossy
Delay relative to video : -5 ms
Stream size : 480 MiB (14%)
Title : Surround
Language : English
Service kind : Complete Main
Default : No
Forced : No
Statistics Tags Issue : mkvmerge v23.0.0 (‘The Bride Said No’) 64-bit 2018-05-04 05:03:01 / mkvmerge v23.0.0 (‘The Bride Said No’) 64-bit 2018-05-04 05:03:01 / UTC 2018-05-03T23:33:42Z
FromStats_BitRate : 640000
FromStats_Duration : 01:44:55.328000000
FromStats_FrameCount : 196729
FromStats_StreamSize : 503626240

Text #1
ID : 5
Format : PGS
Muxing mode : zlib
Codec ID : S_HDMV/PGS
Codec ID/Info : Picture based subtitle format used on BDs/HD-DVDs
Language : English
Default : No
Forced : No
Statistics Tags Issue : mkvmerge v23.0.0 (‘The Bride Said No’) 64-bit 2018-05-04 05:03:01 / mkvmerge v23.0.0 (‘The Bride Said No’) 64-bit 2018-05-04 05:03:01 / UTC 2018-05-03T23:33:42Z
FromStats_BitRate : 43826
FromStats_Duration : 01:37:49.199000000
FromStats_FrameCount : 2647
FromStats_StreamSize : 32153449

Text #2
ID : 6
Format : PGS
Muxing mode : zlib
Codec ID : S_HDMV/PGS
Codec ID/Info : Picture based subtitle format used on BDs/HD-DVDs
Language : Thai
Default : Yes
Forced : Yes
Statistics Tags Issue : mkvmerge v23.0.0 (‘The Bride Said No’) 64-bit 2018-05-04 05:03:01 / mkvmerge v23.0.0 (‘The Bride Said No’) 64-bit 2018-05-04 05:03:01 / UTC 2018-05-03T23:33:42Z
FromStats_BitRate : 51394
FromStats_Duration : 01:37:49.405000000
FromStats_FrameCount : 2482
FromStats_StreamSize : 37706979

Menu #1
00:00:00.000 : :Chapter 1
00:09:14.321 : :Chapter 2
00:16:38.848 : :Chapter 3
00:25:36.218 : :Chapter 4
00:37:03.155 : :Chapter 5
00:44:51.664 : :Chapter 6
00:53:29.181 : :Chapter 7
01:04:50.946 : :Chapter 8
01:11:53.618 : :Chapter 9
01:20:23.419 : :Chapter 10
01:25:26.764 : :Chapter 11
01:34:31.892 : :Chapter 12
01:39:02.454 : :Chapter 13
01:44:12.347 : :Chapter 14

Menu #2
00:00:00.000 : :Chapter 1
00:09:14.321 : :Chapter 2
00:16:38.848 : :Chapter 3
00:25:36.218 : :Chapter 4
00:37:03.155 : :Chapter 5
00:44:51.664 : :Chapter 6
00:53:29.181 : :Chapter 7
01:04:50.946 : :Chapter 8
01:11:53.618 : :Chapter 9
01:20:23.419 : :Chapter 10
01:25:26.764 : :Chapter 11
01:34:31.892 : :Chapter 12
01:39:02.454 : :Chapter 13
01:44:12.347 : :Chapter 14

Menu #3
00:00:00.000 : :Chapter 1
00:09:14.321 : :Chapter 2
00:16:38.848 : :Chapter 3
00:25:36.218 : :Chapter 4
00:37:03.155 : :Chapter 5
00:44:51.664 : :Chapter 6
00:53:29.181 : :Chapter 7
01:04:50.946 : :Chapter 8
01:11:53.618 : :Chapter 9
01:20:23.419 : :Chapter 10
01:25:26.764 : :Chapter 11
01:34:31.892 : :Chapter 12
01:39:02.454 : :Chapter 13
01:44:12.347 : :Chapter 14

DOWNLOAD


PART01 |||| PART02 |||| PART03 |||| PART04

PART01 |||| PART02 |||| PART03 |||| PART04

PART01 |||| PART02 |||| PART03 |||| PART04

PART01 |||| PART02 |||| PART03 |||| PART04


Leave A Reply

Your email address will not be published.

%d bloggers like this: