เว็บโหลดหนัง HD MINI-HD SUPER-HQ Full-HD 1080p One2up VIP Cornfile Mekafile Master Zoom ซูม หนังใหม่ ออนไลน์ มาสเตอร์ ไทย จีน ฝรั่ง การ์ตูน

[MINI Super-HQ] Chinese Zodiac (2012) วิ่งปล้นฟัด [1080p] [พากย์ไทย 5.1 + เสียงจีน DTS] [บรรยายไทย + อังกฤษ] [เสียงไทย + ซับไทย] [ONE2UP]

0

โหลดหนัง  Chinese Zodiac (2012) วิ่งปล้นฟัด

เรื่องย่อ Chinese Zodiac (2012) วิ่งปล้นฟัด

เป็นเรื่องราวของ ฮอร์ค (เฉินหลง) นักผจญภัยล่าสมบัติและลูกทีม ที่ต้องออกเดินทางรอบโลกอีกครั้ง เพื่อตามหาหัวรูปปั้นทองแดงของ 12 นักษัตร ที่กระจัดกระจายอยู่ทั่วทั้งโลก หลังจากที่พวกมันถูกขโมยจากพระราชวังฤดูร้อนในกรุงปั กกิ่ง ไปตั้งแต่ศตวรรษที่แล้ว โดยประตูขุมทรัพย์สุดท้ายที่ฮอร์คและพวกตามหา ในจะปรากฏเพียงครั้งเดียวในรอบ 100 ปี

Complete name : [MINI Super-HQ]_Chinese.Zodiac.2012.1080p.DTS.BluRay.x264.One2loadup.com.mkv
Format : Matroska
Format version : Version 4 / Version 2
File size : 3.99 GiB
Duration : 2 h 2 min
Overall bit rate : 4 650 kb/s
Encoded date : UTC 2010-02-22 21:41:31
Writing application : mkvmerge v5.9.0 (‘On The Loose’) built on Dec 9 2012 15:37:01
Writing library : libebml v1.3.0 + libmatroska v1.4.0

Video
ID : 1
Format : AVC
Format/Info : Advanced Video Codec
Format profile : [email protected]
Format settings : CABAC / 3 Ref Frames
Format settings, CABAC : Yes
Format settings, ReFrames : 3 frames
Codec ID : V_MPEG4/ISO/AVC
Duration : 2 h 2 min
Bit rate : 2 600 kb/s
Width : 1 920 pixels
Height : 804 pixels
Display aspect ratio : 2.40:1
Frame rate mode : Constant
Frame rate : 24.000 FPS
Color space : YUV
Chroma subsampling : 4:2:0
Bit depth : 8 bits
Scan type : Progressive
Bits/(Pixel*Frame) : 0.070
Stream size : 2.23 GiB (56%)
Title : [Super Mini-HD 1080p] Chinese Zodiac 2012 BluRay 1080p DTS x264-panda60
Writing library : x264 core 94
Encoding settings : cabac=1 / ref=3 / deblock=1:0:0 / analyse=0x3:0x133 / me=hex / subme=7 / psy=1 / psy_rd=1.00:0.00 / mixed_ref=1 / me_range=16 / chroma_me=1 / trellis=1 / 8x8dct=1 / cqm=0 / deadzone=21,11 / fast_pskip=1 / chroma_qp_offset=-2 / threads=20 / sliced_threads=0 / nr=0 / decimate=1 / interlaced=0 / constrained_intra=0 / bframes=3 / b_pyramid=1 / b_adapt=2 / b_bias=0 / direct=3 / weightb=1 / weightp=2 / keyint=240 / keyint_min=24 / scenecut=40 / intra_refresh=0 / rc_lookahead=40 / rc=2pass / mbtree=1 / bitrate=2600 / ratetol=0.2 / qcomp=0.60 / qpmin=10 / qpmax=51 / qpstep=4 / cplxblur=20.0 / qblur=0.5 / ip_ratio=1.40 / aq=1:1.00
Language : English
Default : Yes
Forced : No

Audio #1
ID : 2
Format : DTS
Format/Info : Digital Theater Systems
Codec ID : A_DTS
Duration : 2 h 2 min
Bit rate mode : Constant
Bit rate : 1 509 kb/s
Channel(s) : 6 channels
Channel positions : Front: L C R, Side: L R, LFE
Sampling rate : 48.0 kHz
Frame rate : 93.750 FPS (512 SPF)
Bit depth : 24 bits
Compression mode : Lossy
Stream size : 1.30 GiB (32%)
Title : CHI DTS
Language : Chinese
Default : Yes
Forced : No

Audio #2
ID : 3
Format : AC-3
Format/Info : Audio Coding 3
Codec ID : A_AC3
Duration : 2 h 2 min
Bit rate mode : Constant
Bit rate : 448 kb/s
Channel(s) : 6 channels
Channel positions : Front: L C R, Side: L R, LFE
Sampling rate : 48.0 kHz
Frame rate : 31.250 FPS (1536 SPF)
Bit depth : 16 bits
Compression mode : Lossy
Stream size : 394 MiB (10%)
Title : [THAI AC3 FROM DVD MASTER]
Language : Thai
Service kind : Complete Main
Default : No
Forced : No

Text #1
ID : 4
Format : VobSub
Codec ID : S_VOBSUB
Codec ID/Info : Picture based subtitle format used on DVDs
Title : [SUB THAI 480P FROM DVD MASTER] Freesia UPC
Language : Thai
Default : Yes
Forced : No

Text #2
ID : 5
Format : VobSub
Codec ID : S_VOBSUB
Codec ID/Info : Picture based subtitle format used on DVDs
Title : [SUB THAI 480P FROM DVD MASTER] Angsana UPC
Language : Thai
Default : No
Forced : No

Text #3
ID : 6
Format : VobSub
Codec ID : S_VOBSUB
Codec ID/Info : Picture based subtitle format used on DVDs
Title : [SUB THAI 480P FROM DVD MASTER] Freesia UPC UNDER
Language : Thai
Default : No
Forced : No

Text #4
ID : 7
Format : VobSub
Codec ID : S_VOBSUB
Codec ID/Info : Picture based subtitle format used on DVDs
Title : [SUB THAI 1080P FROM DVD MASTER] Angsana UPC
Language : Thai
Default : No
Forced : No

Text #5
ID : 8
Format : PGS
Codec ID : S_HDMV/PGS
Codec ID/Info : Picture based subtitle format used on BDs/HD-DVDs
Title : THAI PGS TH Sarabun
Language : Thai
Default : No
Forced : No

Text #6
ID : 9
Format : PGS
Codec ID : S_HDMV/PGS
Codec ID/Info : Picture based subtitle format used on BDs/HD-DVDs
Title : THAI PGS Angsana UPC
Language : Thai
Default : No
Forced : No

Text #7
ID : 10
Format : UTF-8
Codec ID : S_TEXT/UTF8
Codec ID/Info : UTF-8 Plain Text
Title : ENG SRT
Language : English
Default : No
Forced : No

DOWNLOAD


PART01 |||| PART02 |||| PART03 |||| PART04

PART01 |||| PART02 |||| PART03 |||| PART04

PART01 |||| PART02 |||| PART03 |||| PART04

PART01 |||| PART02 |||| PART03 |||| PART04


Leave A Reply

Your email address will not be published.

%d bloggers like this: