[MINI Super-HQ] Café Funiculi Funicula (2018) เพียงชั่วเวลากาแฟยังอุ่น [1080p] [พากย์ไทย 5.1 + เสียงญี่ปุ่น DTS] [บรรยายไทย + อังกฤษ] [เสียงไทย + ซับไทย] [OPENLOAD]

0

Café Funiculi Funicula (2018)

โหลดหนัง Café Funiculi Funicula (2018) เพียงชั่วเวลากาแฟยังอุ่น

Kohi ga Samenai Uchi Ni (2018) Adventure, Sci-Fi | 21 September 2018 (Japan) Summary: Kazu works for family at a café. There is a belief that occupying a specific table seat at a table allows the occupant to travel back in time. While the traveller can choose the destination... See full summary »
Countries: JapanLanguages: Japanese

เรื่องย่อ Café Funiculi Funicula (2018) เพียงชั่วเวลากาแฟยังอุ่น

Funiculi Funicula Cafe ร้านกาแฟเล็กๆ ในเมืองที่ โทคิตะ คาสึ (อาริมุระ คาสึมิ) กับลูกพี่ลูกน้อง นางาเระ โทคิตะ (ฟุคามิ โมโตกิ) บริหารร่วมกันที่แห่งนี้มีเรื่องราวประหลาดว่ากันว่าจะมีเก้าอี้ตัวหนึ่ง ที่นั่งแล้วสามารถย้อนเวลาได้ตามใจปรารถนา แต่ที่นี่ก็มีกฎน่าวุ่นวายอยู่หลายข้ออะไรที่รอพวกเขาอยู่ที่นั่น อะไรคือความจริงที่ตัวละครเอก โทคิตะ คาสึ ซ่อนไว้ ชีวิตที่เปลี่ยนแปลงไปเพียงชั่วครู่ก่อนที่กาแฟแก้วห นึ่งจะเย็นลง!!!

Complete name : [MINI Super-HQ]_Cafe.Funiculi.Funicula.2018.1080p.BrRip.DTS.x264.One2loadup.com.mkv
Format : Matroska
Format version : Version 4
File size : 3.92 GiB
Duration : 1 h 57 min
Overall bit rate : 4 793 kb/s
Movie name : [MINI Super-HQ]_Cafe.Funiculi.Funicula.2018.1080p.BrRip.DTS.x264.One2loadup.com
Encoded date : UTC 2010-02-22 21:41:31
Writing application : mkvmerge v5.9.0 (‘On The Loose’) built on Dec 9 2012 15:37:01
Writing library : libebml v1.3.0 + libmatroska v1.4.0

Video
ID : 1
Format : AVC
Format/Info : Advanced Video Codec
Format profile : [email protected]
Format settings : CABAC / 4 Ref Frames
Format settings, CABAC : Yes
Format settings, ReFrames : 4 frames
Codec ID : V_MPEG4/ISO/AVC
Duration : 1 h 57 min
Bit rate : 3 505 kb/s
Width : 1 920 pixels
Height : 1 040 pixels
Display aspect ratio : 1.85:1
Frame rate mode : Constant
Frame rate : 23.976 (24000/1001) FPS
Color space : YUV
Chroma subsampling : 4:2:0
Bit depth : 8 bits
Scan type : Progressive
Bits/(Pixel*Frame) : 0.073
Stream size : 2.86 GiB (73%)
Title : [MINI Super-HQ]_Cafe.Funiculi.Funicula.2018.1080p.BrRip.DTS.x264.One2loadup.com
Writing library : x264 core 130 r2273 b3065e6
Encoding settings : cabac=1 / ref=3 / deblock=1:0:0 / analyse=0x3:0x113 / me=umh / subme=11 / psy=1 / psy_rd=1.00:0.00 / mixed_ref=1 / me_range=48 / chroma_me=1 / trellis=2 / 8x8dct=1 / cqm=0 / deadzone=21,11 / fast_pskip=1 / chroma_qp_offset=-2 / threads=10 / lookahead_threads=1 / sliced_threads=0 / nr=0 / decimate=1 / interlaced=0 / bluray_compat=0 / constrained_intra=0 / bframes=3 / b_pyramid=2 / b_adapt=1 / b_bias=0 / direct=1 / weightb=1 / open_gop=0 / weightp=2 / keyint=240 / keyint_min=24 / scenecut=40 / intra_refresh=0 / rc_lookahead=40 / rc=2pass / mbtree=1 / bitrate=3505 / ratetol=1.0 / qcomp=0.60 / qpmin=0 / qpmax=69 / qpstep=4 / cplxblur=20.0 / qblur=0.5 / ip_ratio=1.40 / aq=1:1.00
Language : Japanese
Default : Yes
Forced : No
Color range : Limited
Color primaries : BT.709
Transfer characteristics : BT.709
Matrix coefficients : BT.709

Audio #1
ID : 2
Format : AC-3
Format/Info : Audio Coding 3
Commercial name : Dolby Digital
Codec ID : A_AC3
Duration : 1 h 57 min
Bit rate mode : Constant
Bit rate : 448 kb/s
Channel(s) : 6 channels
Channel layout : L R C LFE Ls Rs
Sampling rate : 48.0 kHz
Frame rate : 31.250 FPS (1536 SPF)
Bit depth : 16 bits
Compression mode : Lossy
Delay relative to video : 2 s 0 ms
Stream size : 375 MiB (9%)
Title : Thai DVD Master
Language : Thai
Service kind : Complete Main
Default : Yes
Forced : Yes

Audio #2
ID : 3
Format : DTS
Format/Info : Digital Theater Systems
Codec ID : A_DTS
Duration : 1 h 57 min
Bit rate mode : Constant
Bit rate : 755 kb/s
Channel(s) : 6 channels
Channel layout : C L R Ls Rs LFE
Sampling rate : 48.0 kHz
Frame rate : 93.750 FPS (512 SPF)
Bit depth : 24 bits
Compression mode : Lossy
Stream size : 632 MiB (16%)
Title : Japanese DTS
Language : Japanese
Default : No
Forced : No

Text #1
ID : 4
Format : VobSub
Codec ID : S_VOBSUB
Codec ID/Info : Picture based subtitle format used on DVDs
Title : Thai 480p From DVD Master
Language : Thai
Default : No
Forced : No

Text #2
ID : 5
Format : VobSub
Codec ID : S_VOBSUB
Codec ID/Info : Picture based subtitle format used on DVDs
Title : Thai 720p
Language : Thai
Default : No
Forced : No

Text #3
ID : 6
Format : VobSub
Codec ID : S_VOBSUB
Codec ID/Info : Picture based subtitle format used on DVDs
Title : Thai 1080p
Language : Thai
Default : Yes
Forced : Yes

Text #4
ID : 7
Format : VobSub
Codec ID : S_VOBSUB
Codec ID/Info : Picture based subtitle format used on DVDs
Title : Thai 1080p Yellow
Language : Thai
Default : No
Forced : No

Text #5
ID : 8
Format : VobSub
Codec ID : S_VOBSUB
Codec ID/Info : Picture based subtitle format used on DVDs
Title : Thai 1080p BIG
Language : Thai
Default : No
Forced : No

Text #6
ID : 9
Format : PGS
Codec ID : S_HDMV/PGS
Codec ID/Info : Picture based subtitle format used on BDs/HD-DVDs
Title : Thai PGS
Language : Thai
Default : No
Forced : No

Text #7
ID : 10
Format : PGS
Codec ID : S_HDMV/PGS
Codec ID/Info : Picture based subtitle format used on BDs/HD-DVDs
Title : Thai PGS Yellow
Language : Thai
Default : No
Forced : No

Text #8
ID : 11
Format : VobSub
Codec ID : S_VOBSUB
Codec ID/Info : Picture based subtitle format used on DVDs
Title : English
Language : English
Default : No
Forced : No

Menu
00:00:00.000 : en:Chapter 1
00:02:03.999 : en:Chapter 2
00:07:53.348 : en:Chapter 3
00:14:09.349 : en:Chapter 4
00:23:38.876 : en:Chapter 5
00:26:53.946 : en:Chapter 6
00:31:02.486 : en:Chapter 7
00:39:28.700 : en:Chapter 8
00:46:49.682 : en:Chapter 9
00:51:46.437 : en:Chapter 10
00:57:20.604 : en:Chapter 11
01:01:45.327 : en:Chapter 12
01:04:40.627 : en:Chapter 13
01:15:16.095 : en:Chapter 14
01:23:37.304 : en:Chapter 15
01:31:21.101 : en:Chapter 16
01:35:41.986 : en:Chapter 17
01:38:09.092 : en:Chapter 18
01:47:06.587 : en:Chapter 19
01:52:32.079 : en:Chapter 20

DOWNLOAD


PART01 |||| PART02 |||| PART03 |||| PART04

PART01 |||| PART02 |||| PART03 |||| PART04

PART01 |||| PART02 |||| PART03 |||| PART04

PART01 |||| PART02 |||| PART03 |||| PART04


Leave A Reply

Your email address will not be published.

%d bloggers like this: