โหลดหนัง HD MINI-HD SUPER-HQ Full-HD 1080p VIP Master Zoom ซูม หนังใหม่ ออนไลน์ มาสเตอร์ ไทย จีน ฝรั่ง การ์ตูน

[MINI Super-HQ] Beirut (2018) เบรุตนรกแตก [1080p] [พากย์ไทย 5.1 + เสียงอังกฤษ DTS] [บรรยายไทย + อังกฤษ] [เสียงไทย + ซับไทย] [FILECLOUD]

0

โหลดหนัง  Beirut (2018) เบรุตนรกแตก

เรื่องย่อ Beirut (2018) เบรุตนรกแตก

เหตุการณ์ความรุนแรงวุ่นวายในกรุงเบรุต ณ ช่วงปี 1982 ที่เกิดสงครามกลางเมืองเลบานอนอยู่ในขณะนั้น เมสัน สไกลส์ (จอน แฮมม์) นักการทูตสหรัฐฯผู้ได้รับมอบหมายให้ปฏิบัติหน้าที่ในกรุงเบรุต แต่แล้ววันหนึ่งได้เกิดโศกนาฏกรรมจากเหตุร้ายขึ้นจนถึงขั้นส่งผลให้ภรรยาของเขาเสียชีวิตลงอย่างน่าเศร ้า และตัวเขาไม่ได้ทำงานที่เบรุตอีกต่อไป สิบปีถัดมา เมสันถูกเรียกตัวให้กลับมาทำภารกิจอีกครั้งร่วมกับ สองเจ้าหน้าที่ซีไอเอ (โรซามันด์ ไพก์ – ดีน นอร์ริส) เป้าหมายเพื่อทำการเจรจาต่อรองกับผู้ก่อการร้ายและช่วยเหลือ คาล ไรลีย์ (มาร์ก เพลล์กริโน) เพื่อนของเขาผู้เป็นหัวหน้าหน่วยงานที่ดูแลการปฏิบัต ิการทั้งหมดในตะวันออกกลางที่ถูกจับเป็นตัวประกัน แต่การที่เมสันจะต่อรองเพื่อช่วยเหลือคาลออกมานั้นดู จะไม่ใช่เรื่องง่ายเลยสักนิด เมื่อกลุ่มคนร้ายต้องการต้องการแลกตัวคาลกับ ราฟิด อาบู ราจัล ผู้ก่อการร้ายที่อยู่เบื้องหลังเหตุการณ์ความรุนแรง
ที่ทำให้ภรรยาของเขาเสียชีวิตและเป็นบุคคลที่ทางรัฐบาลต้องการตัวมากที่สุด โดยมีเวลาเส้นตายเพียง 6 ชั่วโมงเท่านั้น
ท่ามกลางสงครามกลางเมืองความขัดแย้งระหว่าง อิสราเอล และ ปาเลสไตน์ ที่ปะทุความรุนแรงขึ้นทุกๆ วินาที!!!

Complete name : [MINI Super-HQ]_Beirut.2018.1080p.BrRip.DTS.x264.One2loadup.com.mkv
Format : Matroska
Format version : Version 4 / Version 2
File size : 4.00 GiB
Duration : 1 h 49 min
Overall bit rate : 5 218 kb/s
Movie name : [MINI Super-HQ]_Beirut.2018.1080p.BrRip.DTS.x264.One2loadup.com
Encoded date : UTC 2010-02-22 21:41:31
Writing application : mkvmerge v5.9.0 (‘On The Loose’) built on Dec 9 2012 15:37:01
Writing library : libebml v1.3.0 + libmatroska v1.4.0

Video
ID : 1
Format : AVC
Format/Info : Advanced Video Codec
Format profile : [email protected]
Format settings : CABAC / 4 Ref Frames
Format settings, CABAC : Yes
Format settings, ReFrames : 4 frames
Codec ID : V_MPEG4/ISO/AVC
Duration : 1 h 49 min
Bit rate : 3 738 kb/s
Width : 1 920 pixels
Height : 804 pixels
Display aspect ratio : 2.40:1
Frame rate mode : Constant
Frame rate : 23.976 (24000/1001) FPS
Color space : YUV
Chroma subsampling : 4:2:0
Bit depth : 8 bits
Scan type : Progressive
Bits/(Pixel*Frame) : 0.101
Stream size : 3.00 GiB (75%)
Title : [MINI Super-HQ]_Beirut.2018.1080p.BrRip.DTS.x264.One2loadup.com
Writing library : x264 core 130 r2273 b3065e6
Encoding settings : cabac=1 / ref=3 / deblock=1:0:0 / analyse=0x3:0x113 / me=umh / subme=11 / psy=1 / psy_rd=1.00:0.00 / mixed_ref=1 / me_range=48 / chroma_me=1 / trellis=2 / 8x8dct=1 / cqm=0 / deadzone=21,11 / fast_pskip=1 / chroma_qp_offset=-2 / threads=10 / lookahead_threads=1 / sliced_threads=0 / nr=0 / decimate=1 / interlaced=0 / bluray_compat=0 / constrained_intra=0 / bframes=3 / b_pyramid=2 / b_adapt=1 / b_bias=0 / direct=1 / weightb=1 / open_gop=0 / weightp=2 / keyint=240 / keyint_min=24 / scenecut=40 / intra_refresh=0 / rc_lookahead=40 / rc=2pass / mbtree=1 / bitrate=3738 / ratetol=1.0 / qcomp=0.60 / qpmin=0 / qpmax=69 / qpstep=4 / cplxblur=20.0 / qblur=0.5 / ip_ratio=1.40 / aq=1:1.00
Language : English
Default : Yes
Forced : No
Color range : Limited
Color primaries : BT.709
Transfer characteristics : BT.709
Matrix coefficients : BT.709

Audio #1
ID : 2
Format : AC-3
Format/Info : Audio Coding 3
Codec ID : A_AC3
Duration : 1 h 49 min
Bit rate mode : Constant
Bit rate : 448 kb/s
Channel(s) : 6 channels
Channel positions : Front: L C R, Side: L R, LFE
Sampling rate : 48.0 kHz
Frame rate : 31.250 FPS (1536 SPF)
Bit depth : 16 bits
Compression mode : Lossy
Stream size : 352 MiB (9%)
Title : Thai DVD Master
Language : Thai
Service kind : Complete Main
Default : Yes
Forced : Yes

Audio #2
ID : 3
Format : DTS
Format/Info : Digital Theater Systems
Codec ID : A_DTS
Duration : 1 h 49 min
Bit rate mode : Constant
Bit rate : 755 kb/s
Channel(s) : 6 channels
Channel positions : Front: L C R, Side: L R, LFE
Sampling rate : 48.0 kHz
Frame rate : 93.750 FPS (512 SPF)
Bit depth : 24 bits
Compression mode : Lossy
Stream size : 592 MiB (14%)
Title : English DTS
Language : English
Default : No
Forced : No

Text #1
ID : 4
Format : VobSub
Codec ID : S_VOBSUB
Codec ID/Info : Picture based subtitle format used on DVDs
Title : Thai 480p From DVD Master
Language : Thai
Default : No
Forced : No

Text #2
ID : 5
Format : VobSub
Codec ID : S_VOBSUB
Codec ID/Info : Picture based subtitle format used on DVDs
Title : Thai 720p
Language : Thai
Default : No
Forced : No

Text #3
ID : 6
Format : VobSub
Codec ID : S_VOBSUB
Codec ID/Info : Picture based subtitle format used on DVDs
Title : Thai 1080p
Language : Thai
Default : Yes
Forced : Yes

Text #4
ID : 7
Format : VobSub
Codec ID : S_VOBSUB
Codec ID/Info : Picture based subtitle format used on DVDs
Title : Thai 1080p Yellow
Language : Thai
Default : No
Forced : No

Text #5
ID : 8
Format : VobSub
Codec ID : S_VOBSUB
Codec ID/Info : Picture based subtitle format used on DVDs
Title : Thai 1080p Out
Language : Thai
Default : No
Forced : No

Text #6
ID : 9
Format : VobSub
Codec ID : S_VOBSUB
Codec ID/Info : Picture based subtitle format used on DVDs
Title : Thai 1080p BIG
Language : Thai
Default : No
Forced : No

Text #7
ID : 10
Format : VobSub
Codec ID : S_VOBSUB
Codec ID/Info : Picture based subtitle format used on DVDs
Title : Thai 1080p Out [BIG]
Language : Thai
Default : No
Forced : No

Text #8
ID : 11
Format : PGS
Codec ID : S_HDMV/PGS
Codec ID/Info : Picture based subtitle format used on BDs/HD-DVDs
Title : Thai PGS
Language : Thai
Default : No
Forced : No

Text #9
ID : 12
Format : PGS
Codec ID : S_HDMV/PGS
Codec ID/Info : Picture based subtitle format used on BDs/HD-DVDs
Title : Thai PGS Yellow
Language : Thai
Default : No
Forced : No

Text #10
ID : 13
Format : PGS
Codec ID : S_HDMV/PGS
Codec ID/Info : Picture based subtitle format used on BDs/HD-DVDs
Title : Thai PGS Out
Language : Thai
Default : No
Forced : No

Text #11
ID : 14
Format : PGS
Codec ID : S_HDMV/PGS
Codec ID/Info : Picture based subtitle format used on BDs/HD-DVDs
Title : English
Language : English
Default : No
Forced : No

Menu
00:00:00.000 : en:Chapter 1
00:06:12.622 : en:Chapter 2
00:13:35.481 : en:Chapter 3
00:17:22.250 : en:Chapter 4
00:22:57.293 : en:Chapter 5
00:28:06.351 : en:Chapter 6
00:34:22.394 : en:Chapter 7
00:39:46.634 : en:Chapter 8
00:44:28.666 : en:Chapter 9
00:50:39.662 : en:Chapter 10
00:55:06.595 : en:Chapter 11
01:00:41.596 : en:Chapter 12
01:05:43.648 : en:Chapter 13
01:10:56.002 : en:Chapter 14
01:17:43.325 : en:Chapter 15
01:24:47.958 : en:Chapter 16
01:28:42.484 : en:Chapter 17
01:34:56.774 : en:Chapter 18
01:40:47.625 : en:Chapter 19
01:45:21.065 : en:Chapter 20

DOWNLOAD


PART01 |||| PART02 |||| PART03 |||| PART04

PART01 |||| PART02 |||| PART03 |||| PART04

PART01 |||| PART02 |||| PART03 |||| PART04

PART01 |||| PART02 |||| PART03 |||| PART04


Leave A Reply

Your email address will not be published.

%d bloggers like this: