เว็บโหลดหนัง HD MINI-HD SUPER-HQ Full-HD 1080p One2up VIP Master Zoom ซูม หนังใหม่ ออนไลน์ มาสเตอร์ ไทย จีน ฝรั่ง การ์ตูน

[MINI Super-HQ] The Battleship Island (2017) เดอะ แบทเทิลชิป ไอส์แลนด์ [1080p] [พากย์ไทย 5.1 + เกาหลี DTS] [บรรยายอังกฤษ] [เสียงไทย + ซับอังกฤษ] [ONE2UP]

0

,The Battleship Island (2017) เดอะ แบทเทิลชิป ไอส์แลนด์

โหลดหนัง  The Battleship Island (2017) เดอะ แบทเทิลชิป ไอส์แลนด์

เรื่องย่อ The Battleship Island (2017) เดอะ แบทเทิลชิป ไอส์แลนด์

เกิดขึ้นในสมัยที่เกาหลีตกเป็นอาณานิคมของญี่ปุ่น โดยชาวเกาหลีกว่า 400 ชีวิต ถูกส่งไปใช้แรงงานหนักในเหมืองถ่านหินบนเกาะเรือรบ (Battleship Island) หรือที่รู้จักในนามเกาะฮาชิมะ แต่ด้วยสภาพความเป็นอยู่ที่เลวร้ายเกินบรรยาย พวกเขาจึงร่วมกันวางแผนหลบหนีออกมา

Complete name : [MINI Super-HQ]_The.Battleship.Island.2017.1080p.BRRip.DTS.One2loadup.com.mkv
Format : Matroska
Format version : Version 4 / Version 2
File size : 3.53 GiB
Duration : 2 h 12 min
Overall bit rate : 3 825 kb/s
Movie name : [MINI Super-HQ]_The.Battleship.Island.2017.1080p.BRRip.DTS.One2loadup.com
Encoded date : UTC 2018-01-05 14:02:20
Writing application : mkvmerge v18.0.0 (‘Apricity’) 32-bit
Writing library : libebml v1.3.5 + libmatroska v1.4.8

Video
ID : 1
Format : AVC
Format/Info : Advanced Video Codec
Format profile : [email protected]
Format settings, CABAC : Yes
Format settings, RefFrames : 5 frames
Codec ID : V_MPEG4/ISO/AVC
Duration : 2 h 12 min
Bit rate : 2 026 kb/s
Width : 1 920 pixels
Height : 804 pixels
Display aspect ratio : 2.40:1
Frame rate mode : Constant
Frame rate : 24.000 FPS
Color space : YUV
Chroma subsampling : 4:2:0
Bit depth : 8 bits
Scan type : Progressive
Bits/(Pixel*Frame) : 0.055
Stream size : 1.84 GiB (52%)
Title : [MINI Super-HQ]_The.Battleship.Island.2017.1080p.BRRip.DTS.One2loadup.com
Writing library : x264 core 148 r2795 aaa9aa8
Encoding settings : cabac=1 / ref=5 / deblock=1:0:0 / analyse=0x3:0x133 / me=umh / subme=10 / psy=1 / psy_rd=1.00:0.00 / mixed_ref=1 / me_range=24 / chroma_me=1 / trellis=2 / 8x8dct=1 / cqm=0 / deadzone=21,11 / fast_pskip=1 / chroma_qp_offset=-2 / threads=96 / lookahead_threads=6 / sliced_threads=0 / nr=0 / decimate=1 / interlaced=0 / bluray_compat=0 / constrained_intra=0 / bframes=8 / b_pyramid=2 / b_adapt=2 / b_bias=0 / direct=3 / weightb=1 / open_gop=0 / weightp=2 / keyint=250 / keyint_min=24 / scenecut=40 / intra_refresh=0 / rc_lookahead=60 / rc=abr / mbtree=1 / bitrate=2026 / ratetol=1.0 / qcomp=0.60 / qpmin=0 / qpmax=69 / qpstep=4 / vbv_maxrate=31250 / vbv_bufsize=4087 / nal_hrd=none / filler=0 / ip_ratio=1.40 / aq=1:1.00
Language : Korean
Default : Yes
Forced : No

Audio #1
ID : 2
Format : AC-3
Format/Info : Audio Coding 3
Mode : Dolby Digital
Format settings, Endianness : Big
Codec ID : A_AC3
Duration : 2 h 12 min
Bit rate mode : Constant
Bit rate : 192 kb/s
Channel(s) : 2 channels
Channel positions : Front: L R
Sampling rate : 48.0 kHz
Frame rate : 31.250 FPS (1536 SPF)
Bit depth : 16 bits
Compression mode : Lossy
Delay relative to video : -43 ms
Stream size : 182 MiB (5%)
Title : Thai Master
Language : Thai
Service kind : Complete Main
Default : Yes
Forced : Yes

Audio #2
ID : 3
Format : DTS
Format/Info : Digital Theater Systems
Mode : 16
Format settings, Endianness : Big
Codec ID : A_DTS
Duration : 2 h 12 min
Bit rate mode : Constant
Bit rate : 1 509 kb/s
Channel(s) : 6 channels
Channel positions : Front: L C R, Side: L R, LFE
Sampling rate : 48.0 kHz
Frame rate : 93.750 FPS (512 SPF)
Bit depth : 24 bits
Compression mode : Lossy
Delay relative to video : -43 ms
Stream size : 1.39 GiB (39%)
Title : Kor DTS 5.1
Language : Korean
Default : No
Forced : No

Audio #3
ID : 4
Format : AAC
Format/Info : Advanced Audio Codec
Format profile : LC
Codec ID : A_AAC
Duration : 2 h 12 min
Bit rate : 128 kb/s
Channel(s) : 2 channels
Channel positions : Front: L R
Sampling rate : 48.0 kHz
Frame rate : 46.875 FPS (1024 SPF)
Compression mode : Lossy
Delay relative to video : -43 ms
Stream size : 121 MiB (3%)
Title : Kor AAC 2.0
Language : Korean
Default : No
Forced : No

Text
ID : 5
Format : UTF-8
Codec ID : S_TEXT/UTF8
Codec ID/Info : UTF-8 Plain Text
Duration : 2 h 10 min
Bit rate : 48 b/s
Count of elements : 1679
Stream size : 46.5 KiB (0%)
Title : Eng
Language : English
Default : Yes
Forced : No

 

 


PART01 |||| PART02 |||| PART03 |||| PART04

PART01 |||| PART02 |||| PART03 |||| PART04

PART01 |||| PART02 |||| PART03 |||| PART04

PART01 |||| PART02 |||| PART03 |||| PART04


Leave A Reply

Your email address will not be published.

%d bloggers like this: