เว็บโหลดหนัง HD MINI-HD SUPER-HQ Full-HD 1080p One2up VIP Cornfile Mekafile Master Zoom ซูม หนังใหม่ ออนไลน์ มาสเตอร์ ไทย จีน ฝรั่ง การ์ตูน

[MINI Super-HQ] Back To The Future Part III (1990) เจาะเวลาหาอดีต ภาค 3 [1080p] [พากย์ไทย 5.1 + อังกฤษ DTS] [บรรยายไทย + อังกฤษ] [เสียงไทย + ซับไทย] [ONE2UP]

0

Back To The Future Part III (1990) เจาะเวลาหาอดีต ภาค 3

โหลดหนัง Back To The Future Part III (1990) เจาะเวลาหาอดีต ภาค 3 

เรื่องย่อ Back To The Future Part III (1990) เจาะเวลาหาอดีต ภาค 3

หลังจากภาคที่แล้ว ดร.บราวน์ (Christopher Lloyd) และยานเจาะเวลาได้ถูกฟ้าแล้วก็หายสาปสูญไป มาร์ตี้ (Michael J. Fox) ก็กำลังยืนงงอยู่ จนในที่สุดก็พบความจริงว่า ดร.ระเห็จไปสู่ปี 1885 อันตรงกับยุคคาวบอยเฟื่อง ซึ่งก็ไม่น่าจะมีปัญหาอะไร หากแต่มาร์ตี้ดันพบว่า ดร.จะต้องถูกฆ่าตาย มาร์ตี้เลยต้องเจาะเวลาไปอดีตอีกครั้งเพื่อช่วยด็อกกลับมา แต่งานนี้ยุ่งแน่ เพราะยานเจาะเวลาดันไม่เหลือน้ำมันเลยตอนไปถึงปี 1885 … แล้วยุคนั้นมีน้ำมันที่ไหนกันล่ะ พวกเขาจะกลับมาได้ไหม แล้วพวกเขายังต้องเจอกับอะไรอีก ต้องตามในตอนอวสานของหนังชุดนี้

Complete name : [MINI Super-HQ]_Back.to.the.Future.Part.III.1990.1080p.DTS.x264.AC3.One2loadup.com.mkv
Format : Matroska
Format version : Version 4 / Version 2
File size : 4.94 GiB
Duration : 1 h 58 min
Overall bit rate : 5 970 kb/s
Movie name : [MINI Super-HQ]_Back.to.the.Future.Part.III.1990.1080p.DTS.x264.AC3.One2loadup.com
Encoded date : UTC 2016-02-15 07:41:38
Writing application : mkvmerge v8.1.0 (‘Psychedelic Postcard’) 32bit
Writing library : libebml v1.3.1 + libmatroska v1.4.2

Video
ID : 1
Format : AVC
Format/Info : Advanced Video Codec
Format profile : [email protected]
Format settings : CABAC / 4 Ref Frames
Format settings, CABAC : Yes
Format settings, ReFrames : 4 frames
Codec ID : V_MPEG4/ISO/AVC
Duration : 1 h 58 min
Bit rate : 4 500 kb/s
Width : 1 920 pixels
Height : 1 040 pixels
Display aspect ratio : 1.85:1
Frame rate mode : Constant
Frame rate : 23.976 (24000/1001) FPS
Color space : YUV
Chroma subsampling : 4:2:0
Bit depth : 8 bits
Scan type : Progressive
Bits/(Pixel*Frame) : 0.094
Stream size : 3.69 GiB (75%)
Title : [MINI Super-HQ]_Back.to.the.Future.Part.III.1990.1080p.DTS.x264.AC3.One2loadup.com
Writing library : x264 core 88
Encoding settings : cabac=1 / ref=4 / deblock=1:-1:-1 / analyse=0x3:0x133 / me=umh / subme=9 / psy=1 / psy_rd=1.00:0.00 / mixed_ref=1 / me_range=32 / chroma_me=1 / trellis=2 / 8x8dct=1 / cqm=0 / deadzone=21,11 / fast_pskip=1 / chroma_qp_offset=-2 / threads=12 / sliced_threads=0 / nr=0 / decimate=1 / mbaff=0 / constrained_intra=0 / bframes=5 / b_pyramid=2 / b_adapt=2 / b_bias=0 / direct=3 / wpredb=1 / wpredp=2 / keyint=240 / keyint_min=24 / scenecut=40 / intra_refresh=0 / rc_lookahead=50 / rc=2pass / mbtree=1 / bitrate=4500 / ratetol=1.0 / qcomp=0.60 / qpmin=10 / qpmax=51 / qpstep=4 / cplxblur=20.0 / qblur=0.5 / ip_ratio=1.40 / aq=1:1.00
Language : English
Default : Yes
Forced : No
Color range : Limited
Color primaries : BT.709
Transfer characteristics : BT.709
Matrix coefficients : BT.709

Audio #1
ID : 2
Format : AC-3
Format/Info : Audio Coding 3
Codec ID : A_AC3
Duration : 1 h 58 min
Bit rate mode : Constant
Bit rate : 192 kb/s
Channel(s) : 2 channels
Channel positions : Front: L R
Sampling rate : 48.0 kHz
Frame rate : 31.250 FPS (1536 SPF)
Bit depth : 16 bits
Compression mode : Lossy
Stream size : 163 MiB (3%)
Title : AC3 CLASSIC
Language : Thai
Service kind : Complete Main
Default : Yes
Forced : Yes

Audio #2
ID : 3
Format : AC-3
Format/Info : Audio Coding 3
Codec ID : A_AC3
Duration : 1 h 58 min
Bit rate mode : Constant
Bit rate : 448 kb/s
Channel(s) : 6 channels
Channel positions : Front: L C R, Side: L R, LFE
Sampling rate : 48.0 kHz
Frame rate : 31.250 FPS (1536 SPF)
Bit depth : 16 bits
Compression mode : Lossy
Stream size : 379 MiB (8%)
Title : AC3 BD MASTER
Language : Thai
Service kind : Complete Main
Default : No
Forced : No

Audio #3
ID : 4
Format : DTS
Format/Info : Digital Theater Systems
Codec ID : A_DTS
Duration : 1 h 58 min
Bit rate mode : Constant
Bit rate : 755 kb/s
Channel(s) : 6 channels
Channel positions : Front: L C R, Side: L R, LFE
Sampling rate : 48.0 kHz
Frame rate : 93.750 FPS (512 SPF)
Bit depth : 24 bits
Compression mode : Lossy
Delay relative to video : 11 ms
Stream size : 639 MiB (13%)
Title : DTS
Language : English
Default : No
Forced : No

Text #1
ID : 5
Format : VobSub
Codec ID : S_VOBSUB
Codec ID/Info : Picture based subtitle format used on DVDs
Title : 1080P FORCED
Language : Thai
Default : No
Forced : No

Text #2
ID : 6
Format : VobSub
Codec ID : S_VOBSUB
Codec ID/Info : Picture based subtitle format used on DVDs
Title : 1080P BD MASTER
Language : Thai
Default : No
Forced : No

Text #3
ID : 7
Format : VobSub
Codec ID : S_VOBSUB
Codec ID/Info : Picture based subtitle format used on DVDs
Title : 1080P BD YELLOW
Language : Thai
Default : No
Forced : No

Text #4
ID : 8
Format : VobSub
Codec ID : S_VOBSUB
Codec ID/Info : Picture based subtitle format used on DVDs
Title : 480P BD MASTER
Language : Thai
Default : No
Forced : No

Text #5
ID : 9
Format : PGS
Codec ID : S_HDMV/PGS
Codec ID/Info : Picture based subtitle format used on BDs/HD-DVDs
Title : BD FORCED
Language : Thai
Default : No
Forced : No

Text #6
ID : 10
Format : PGS
Codec ID : S_HDMV/PGS
Codec ID/Info : Picture based subtitle format used on BDs/HD-DVDs
Title : BD MASTER
Language : Thai
Default : Yes
Forced : Yes

Text #7
ID : 11
Format : PGS
Codec ID : S_HDMV/PGS
Codec ID/Info : Picture based subtitle format used on BDs/HD-DVDs
Title : BD MASTER
Language : English
Default : No
Forced : No

Menu
00:00:00.000 : en:00:00:00.000
00:02:50.379 : en:00:02:50.337
00:05:01.259 : en:00:05:01.134
00:12:42.011 : en:00:12:42.011
00:15:49.365 : en:00:15:49.365
00:22:15.334 : en:00:22:15.209
00:30:03.593 : en:00:30:03.593
00:33:16.119 : en:00:33:16.119
00:37:44.679 : en:00:37:44.679
00:41:54.303 : en:00:41:54.303
00:50:43.332 : en:00:50:43.332
00:56:58.665 : en:00:56:58.665
01:06:25.440 : en:01:06:25.440
01:16:23.079 : en:01:16:23.078
01:20:44.840 : en:01:20:44.840
01:30:33.678 : en:01:30:33.678
01:42:19.842 : en:01:42:19.759
01:46:07.236 : en:01:46:07.236
01:48:07.940 : en:01:48:07.940
01:51:52.831 : en:01:51:52.831

DOWNLOAD


PART01 |||| PART02 |||| PART03 |||| PART04 |||| PART05

PART01 |||| PART02 |||| PART03 |||| PART04 |||| PART05

PART01 |||| PART02 |||| PART03 |||| PART04 |||| PART05

PART01 |||| PART02 |||| PART03 |||| PART04 |||| PART05


Leave A Reply

Your email address will not be published.

%d bloggers like this: