เว็บโหลดหนัง HD MINI-HD SUPER-HQ Full-HD 1080p One2up VIP Master Zoom ซูม หนังใหม่ ออนไลน์ มาสเตอร์ ไทย จีน ฝรั่ง การ์ตูน

[MINI Super-HQ] Back To The Future Part II (1989) เจาะเวลาหาอดีต ภาค 2 [1080p] [พากย์ไทย 5.1 + อังกฤษ DTS] [บรรยายไทย + อังกฤษ] [เสียงไทย + ซับไทย] [ONE2UP]

0

โหลดหนัง  Back To The Future Part II (1989) เจาะเวลาหาอดีต ภาค 2

เรื่องย่อ Back To The Future Part II (1989) เจาะเวลาหาอดีต ภาค 2

Marty McFly กับ Doc ข้ามเวลาไปในปี 2015 หรืออีก 30 ปีข้างหน้าของปัจจุบันในหนัง เพื่อไปแก้ปัญหาของครอบครัว แต่เหตุการณ์เริ่มบานปลายเมื่อใครคนนึงแอบใช้ยานข้าม เวลาเพื่อไปแก้ไขอดีต ให้ตัวเอง ทำให้ทั้งสองคนต้องกลับไปในปี 1955 อีกครั้ง

Complete name : C:\Users\Administrator\Desktop\[MINI Super-HQ]_Back.to.the.Future.Part.II.1989.1080p.DTS.x264.AC3.One2loadup.com.mkv
Format : Matroska
Format version : Version 4 / Version 2
File size : 4.71 GiB
Duration : 1 h 48 min
Overall bit rate : 6 232 kb/s
Movie name : www.HiDefHitz.com
Encoded date : UTC 2016-02-15 07:35:45
Writing application : mkvmerge v8.1.0 (‘Psychedelic Postcard’) 32bit
Writing library : libebml v1.3.1 + libmatroska v1.4.2

Video
ID : 1
Format : AVC
Format/Info : Advanced Video Codec
Format profile : [email protected]
Format settings : CABAC / 4 Ref Frames
Format settings, CABAC : Yes
Format settings, ReFrames : 4 frames
Codec ID : V_MPEG4/ISO/AVC
Duration : 1 h 48 min
Bit rate : 4 500 kb/s
Width : 1 920 pixels
Height : 1 040 pixels
Display aspect ratio : 1.85:1
Frame rate mode : Constant
Frame rate : 23.976 FPS
Color space : YUV
Chroma subsampling : 4:2:0
Bit depth : 8 bits
Scan type : Progressive
Bits/(Pixel*Frame) : 0.094
Stream size : 3.37 GiB (72%)
Title : Back.to.the.Future.Part.II.1989.1080p.SuperHQ.DTS.x264.AC3.2THAI.BDMASTER-Zakky
Writing library : x264 core 88
Encoding settings : cabac=1 / ref=4 / deblock=1:-1:-1 / analyse=0x3:0x133 / me=tesa / subme=9 / psy=1 / psy_rd=1.00:0.00 / mixed_ref=1 / me_range=32 / chroma_me=1 / trellis=2 / 8x8dct=1 / cqm=0 / deadzone=21,11 / fast_pskip=1 / chroma_qp_offset=-2 / threads=12 / sliced_threads=0 / nr=0 / decimate=1 / mbaff=0 / constrained_intra=0 / bframes=5 / b_pyramid=2 / b_adapt=2 / b_bias=0 / direct=3 / wpredb=1 / wpredp=2 / keyint=240 / keyint_min=24 / scenecut=40 / intra_refresh=0 / rc_lookahead=50 / rc=2pass / mbtree=1 / bitrate=4500 / ratetol=1.0 / qcomp=0.60 / qpmin=10 / qpmax=51 / qpstep=4 / cplxblur=20.0 / qblur=0.5 / ip_ratio=1.40 / aq=1:1.00
Language : English
Default : Yes
Forced : No
Color range : Limited
Color primaries : BT.709
Transfer characteristics : BT.709
Matrix coefficients : BT.709

Audio #1
ID : 2
Format : AC-3
Format/Info : Audio Coding 3
Codec ID : A_AC3
Duration : 1 h 48 min
Bit rate mode : Constant
Bit rate : 448 kb/s
Channel(s) : 6 channels
Channel positions : Front: L C R, Side: L R, LFE
Sampling rate : 48.0 kHz
Frame rate : 31.250 FPS (1536 SPF)
Bit depth : 16 bits
Compression mode : Lossy
Stream size : 346 MiB (7%)
Title : AC3 CLASSIC
Language : Thai
Service kind : Complete Main
Default : Yes
Forced : Yes

Audio #2
ID : 3
Format : AC-3
Format/Info : Audio Coding 3
Codec ID : A_AC3
Duration : 1 h 48 min
Bit rate mode : Constant
Bit rate : 448 kb/s
Channel(s) : 6 channels
Channel positions : Front: L C R, Side: L R, LFE
Sampling rate : 48.0 kHz
Frame rate : 31.250 FPS (1536 SPF)
Bit depth : 16 bits
Compression mode : Lossy
Stream size : 346 MiB (7%)
Title : AC3 BD MASTER
Language : Thai
Service kind : Complete Main
Default : No
Forced : No

Audio #3
ID : 4
Format : DTS
Format/Info : Digital Theater Systems
Codec ID : A_DTS
Duration : 1 h 48 min
Bit rate mode : Constant
Bit rate : 755 kb/s
Channel(s) : 6 channels
Channel positions : Front: L C R, Side: L R, LFE
Sampling rate : 48.0 kHz
Frame rate : 93.750 FPS (512 SPF)
Bit depth : 24 bits
Compression mode : Lossy
Delay relative to video : 11 ms
Stream size : 583 MiB (12%)
Title : DTS
Language : English
Default : No
Forced : No

Text #1
ID : 5
Format : VobSub
Codec ID : S_VOBSUB
Codec ID/Info : Picture based subtitle format used on DVDs
Title : 1080P FORCED
Language : Thai
Default : No
Forced : No

Text #2
ID : 6
Format : VobSub
Codec ID : S_VOBSUB
Codec ID/Info : Picture based subtitle format used on DVDs
Title : 1080P BD MASTER
Language : Thai
Default : No
Forced : No

Text #3
ID : 7
Format : VobSub
Codec ID : S_VOBSUB
Codec ID/Info : Picture based subtitle format used on DVDs
Title : 1080P BD YELLOW
Language : Thai
Default : No
Forced : No

Text #4
ID : 8
Format : VobSub
Codec ID : S_VOBSUB
Codec ID/Info : Picture based subtitle format used on DVDs
Title : 480P BD MASTER
Language : Thai
Default : No
Forced : No

Text #5
ID : 9
Format : PGS
Codec ID : S_HDMV/PGS
Codec ID/Info : Picture based subtitle format used on BDs/HD-DVDs
Title : BD FORCED
Language : Thai
Default : No
Forced : No

Text #6
ID : 10
Format : PGS
Codec ID : S_HDMV/PGS
Codec ID/Info : Picture based subtitle format used on BDs/HD-DVDs
Title : BD MASTER
Language : Thai
Default : Yes
Forced : Yes

Text #7
ID : 11
Format : PGS
Codec ID : S_HDMV/PGS
Codec ID/Info : Picture based subtitle format used on BDs/HD-DVDs
Title : BD MASTER
Language : English
Default : No
Forced : No

Menu
00:00:00.000 : en:00:00:00.000
00:02:57.511 : en:00:02:57.511
00:04:17.632 : en:00:04:17.632
00:12:44.513 : en:00:12:44.389
00:17:09.111 : en:00:17:09.111
00:21:16.691 : en:00:21:16.525
00:26:59.825 : en:00:26:59.660
00:34:15.552 : en:00:34:15.428
00:38:32.642 : en:00:38:32.477
00:46:13.101 : en:00:46:13.062
00:50:35.572 : en:00:50:35.449
00:55:32.743 : en:00:55:32.621
01:01:30.309 : en:01:01:30.145
01:07:14.360 : en:01:07:14.197
01:14:46.103 : en:01:14:45.940
01:28:00.771 : en:01:28:00.609
01:34:43.465 : en:01:34:43.303
01:37:46.106 : en:01:37:46.027
01:40:37.276 : en:01:40:37.240
01:43:25.528 : en:01:43:25.491

DOWNLOAD


PART01 |||| PART02 |||| PART03 |||| PART04 |||| PART05

PART01 |||| PART02 |||| PART03 |||| PART04 |||| PART05

PART01 |||| PART02 |||| PART03 |||| PART04 |||| PART05

PART01 |||| PART02 |||| PART03 |||| PART04 |||| PART05


Leave A Reply

Your email address will not be published.

%d bloggers like this: