โหลดหนัง HD MINI-HD SUPER-HQ Full-HD 1080p VIP Master Zoom ซูม หนังใหม่ ออนไลน์ มาสเตอร์ ไทย จีน ฝรั่ง การ์ตูน

[MINI Super-HQ] Avengers: Infinity War (2018) มหาสงครามล้างจักรวาล [1080p] [พากย์ไทย 5.1 + เสียงอังกฤษ DTS] [บรรยายไทย + อังกฤษ] [เสียงไทย + ซับไทย]

9

โหลดหนัง Avengers: Infinity War (2018) มหาสงครามล้างจักรวาล 

เรื่องย่อ Avengers: Infinity War (2018) มหาสงครามล้างจักรวาล

เหล่าอเวนเจอร์ยังคงต้องปกป้องโลกจากภัยอันตรายครั้ง ใหญ่ที่เกินกว่าที่ซุปเปอร์ฮีโร่คนเดียวจะรับมือได้อันตรายครั้งใหม่นั้นมาจากเงามืดของจักรวาล ‘ทานอส’ จอมเผด็จการแห่งจักรวาล เป้าหมายของเขาคือการรวบรวมอัญมณี อินฟินิตี้สโตนส์ทั้งหก
เพื่อครอบครองพลังที่เกินจะจินตนาการถึง และใช้พวกมันในการเปลี่ยนแปลงความจริงทั้งมวลของจักรวาล ทุกสิ่งทุกอย่างที่อเวนเจอร์ต่อสู้มาก็เพื่อสิ่งนี้ชะตากรรมของโลกและจักรวาลไม่เคยสั่นคลอนเท่านี้มาก่อน!!!

Complete name : [MINI Super-HQ]_Avengers.Infinity.War.2018.1080p.BrRip.DTS.x264.One2loadup.com.mkv
Format : Matroska
Format version : Version 4 / Version 2
File size : 4.80 GiB
Duration : 2 h 29 min
Overall bit rate : 4 605 kb/s
Movie name : [MINI Super-HQ]_Avengers.Infinity.War.2018.1080p.BrRip.DTS.x264.One2loadup.com
Encoded date : UTC 2010-02-22 21:41:31
Writing application : mkvmerge v5.9.0 (‘On The Loose’) built on Dec 9 2012 15:37:01
Writing library : libebml v1.3.0 + libmatroska v1.4.0

Video
ID : 1
Format : AVC
Format/Info : Advanced Video Codec
Format profile : [email protected]
Format settings : CABAC / 4 Ref Frames
Format settings, CABAC : Yes
Format settings, ReFrames : 4 frames
Codec ID : V_MPEG4/ISO/AVC
Duration : 2 h 29 min
Bit rate : 3 072 kb/s
Width : 1 920 pixels
Height : 804 pixels
Display aspect ratio : 2.40:1
Frame rate mode : Constant
Frame rate : 23.976 (24000/1001) FPS
Color space : YUV
Chroma subsampling : 4:2:0
Bit depth : 8 bits
Scan type : Progressive
Bits/(Pixel*Frame) : 0.083
Stream size : 3.25 GiB (68%)
Title : [MINI Super-HQ]_Avengers.Infinity.War.2018.1080p.BrRip.DTS.x264.One2loadup.com
Writing library : x264 core 146 r2538 121396c
Encoding settings : cabac=1 / ref=5 / deblock=1:-3:-3 / analyse=0x3:0x133 / me=tesa / subme=11 / psy=1 / psy_rd=1.00:0.15 / mixed_ref=1 / me_range=48 / chroma_me=1 / trellis=2 / 8x8dct=1 / cqm=0 / deadzone=21,11 / fast_pskip=1 / chroma_qp_offset=-3 / threads=54 / lookahead_threads=4 / sliced_threads=0 / nr=0 / decimate=1 / interlaced=0 / bluray_compat=1 / constrained_intra=0 / bframes=3 / b_pyramid=1 / b_adapt=2 / b_bias=0 / direct=3 / weightb=1 / open_gop=0 / weightp=1 / keyint=250 / keyint_min=1 / scenecut=40 / intra_refresh=0 / rc_lookahead=60 / rc=2pass / mbtree=1 / bitrate=3072 / ratetol=1.0 / qcomp=0.60 / qpmin=0 / qpmax=69 / qpstep=4 / cplxblur=20.0 / qblur=0.5 / ip_ratio=1.40 / aq=1:1.30
Language : English
Default : Yes
Forced : No

Audio #1
ID : 2
Format : AC-3
Format/Info : Audio Coding 3
Codec ID : A_AC3
Duration : 2 h 29 min
Bit rate mode : Constant
Bit rate : 640 kb/s
Channel(s) : 6 channels
Channel positions : Front: L C R, Side: L R, LFE
Sampling rate : 48.0 kHz
Frame rate : 31.250 FPS (1536 SPF)
Bit depth : 16 bits
Compression mode : Lossy
Stream size : 684 MiB (14%)
Title : Thai BluRay Master
Language : Thai
Service kind : Complete Main
Default : Yes
Forced : Yes

Audio #2
ID : 3
Format : DTS
Format/Info : Digital Theater Systems
Codec ID : A_DTS
Duration : 2 h 29 min
Bit rate mode : Constant
Bit rate : 755 kb/s
Channel(s) : 6 channels
Channel positions : Front: L C R, Side: L R, LFE
Sampling rate : 48.0 kHz
Frame rate : 93.750 FPS (512 SPF)
Bit depth : 24 bits
Compression mode : Lossy
Stream size : 806 MiB (16%)
Title : English DTS
Language : English
Default : No
Forced : No

Text #1
ID : 4
Format : VobSub
Codec ID : S_VOBSUB
Codec ID/Info : Picture based subtitle format used on DVDs
Title : Thai 480p
Language : Thai
Default : No
Forced : No

Text #2
ID : 5
Format : VobSub
Codec ID : S_VOBSUB
Codec ID/Info : Picture based subtitle format used on DVDs
Title : Thai 720p
Language : Thai
Default : No
Forced : No

Text #3
ID : 6
Format : VobSub
Codec ID : S_VOBSUB
Codec ID/Info : Picture based subtitle format used on DVDs
Title : Thai 1080p BluRay Master
Language : Thai
Default : No
Forced : No

Text #4
ID : 7
Format : VobSub
Codec ID : S_VOBSUB
Codec ID/Info : Picture based subtitle format used on DVDs
Title : Thai 1080p Angsana
Language : Thai
Default : Yes
Forced : Yes

Text #5
ID : 8
Format : VobSub
Codec ID : S_VOBSUB
Codec ID/Info : Picture based subtitle format used on DVDs
Title : Thai 1080p Yellow
Language : Thai
Default : No
Forced : No

Text #6
ID : 9
Format : VobSub
Codec ID : S_VOBSUB
Codec ID/Info : Picture based subtitle format used on DVDs
Title : Thai 1080p Out
Language : Thai
Default : No
Forced : No

Text #7
ID : 10
Format : VobSub
Codec ID : S_VOBSUB
Codec ID/Info : Picture based subtitle format used on DVDs
Title : Thai 1080p BIG
Language : Thai
Default : No
Forced : No

Text #8
ID : 11
Format : VobSub
Codec ID : S_VOBSUB
Codec ID/Info : Picture based subtitle format used on DVDs
Title : Thai 1080p Out [BIG]
Language : Thai
Default : No
Forced : No

Text #9
ID : 12
Format : PGS
Codec ID : S_HDMV/PGS
Codec ID/Info : Picture based subtitle format used on BDs/HD-DVDs
Title : Thai Forced
Language : Thai
Default : No
Forced : No

Text #10
ID : 13
Format : PGS
Codec ID : S_HDMV/PGS
Codec ID/Info : Picture based subtitle format used on BDs/HD-DVDs
Title : Thai PGS BluRay Master
Language : Thai
Default : No
Forced : No

Text #11
ID : 14
Format : PGS
Codec ID : S_HDMV/PGS
Codec ID/Info : Picture based subtitle format used on BDs/HD-DVDs
Title : Thai PGS Yellow
Language : Thai
Default : No
Forced : No

Text #12
ID : 15
Format : PGS
Codec ID : S_HDMV/PGS
Codec ID/Info : Picture based subtitle format used on BDs/HD-DVDs
Title : Thai PGS Out
Language : Thai
Default : No
Forced : No

Text #13
ID : 16
Format : PGS
Codec ID : S_HDMV/PGS
Codec ID/Info : Picture based subtitle format used on BDs/HD-DVDs
Title : English
Language : English
Default : No
Forced : No

Menu
00:00:00.000 : en:Thanos Is Coming
00:11:28.000 : en:Infinity Stones
00:18:14.000 : en:Fight For The Time Stone
00:27:23.000 : en:Who The Hell Are You Guys?
00:35:48.000 : en:Wanda And Vision
00:42:23.000 : en:Knowhere
00:54:12.000 : en:Avengers Assemble
00:59:36.000 : en:Take The Fight To Him
01:05:07.000 : en:The Soul Stone
01:10:53.000 : en:Nidavellir
01:17:07.000 : en:Titan
01:24:14.000 : en:Vormir
01:31:08.000 : en:”Wakanda Forever”
01:42:00.000 : en:Stormbreaker
01:45:57.000 : en:Titan Confrontation
01:53:04.000 : en:A Vision Situation
01:58:53.000 : en:The Time Stone
02:03:58.000 : en:The End Game
02:11:13.000 : en:Aftermath
02:17:31.000 : en:End Credits

DOWNLOAD


PART01 |||| PART02 |||| PART03 |||| PART04 |||| PART05

PART01 |||| PART02 |||| PART03 |||| PART04 |||| PART05

PART01 |||| PART02 |||| PART03 |||| PART04 |||| PART05

PART01 |||| PART02 |||| PART03 |||| PART04 |||| PART05


9 Comments
  1. pak says

    พาสอะไรหรอครับ

    1. Admin
      Admin says

      ไม่มีพาส ฮ๊ะไม่เคยใส่นะ

  2. Damrongsin says

    good

  3. 3oyscoutz says

    Part4 โหลดไม่ได้ครับ

    1. Admin
      Admin says

      โหลดได้ปกติฮ๊ะ

  4. 3 o y s c o u t z
    3 o y s c o u t z says

    Part4 โหลดไม่ได้ครับ

    1. Admin
      Admin says

      โหลดได้ปกติฮ๊ะ

      1. 3 o y s c o u t z
        3 o y s c o u t z says

        ปกติยังไงอะครับ ทำไมไม่ขึ้นขนาดไฟล์ ใช้ IDM โหลดธรรมดาก็ไม่ได้?

        https://www.picz.in.th/image/2561-08-31-18-16-38-mini-super-hq-avengersinfinitywar2018108.ft2Wo9

        1. Admin
          Admin says

          แนะนำโหลดเชิฟสำรอง แทนฮ๊ะมันโหลดได้เหมือนกัน ส่วน openload น่าจะเป็นที่เชิฟเวอร์ ฝั่ง openload เอง ไม่เกี่ยวกับเรานะ

Leave A Reply

Your email address will not be published.

%d bloggers like this: