โหลดหนัง HD MINI-HD SUPER-HQ Full-HD 1080p VIP Master Zoom ซูม หนังใหม่ ออนไลน์ มาสเตอร์ ไทย จีน ฝรั่ง การ์ตูน

[MINI Super-HQ] Avengers: Age of Ultron (2015) อเวนเจอร์ส: มหาศึกอัลตรอนถล่มโลก [1080p] [พากย์ไทย 5.1 + อังกฤษ DTS] [BrRip.DTS.x264] [บรรยายไทย + อังกฤษ] [เสียงไทย + ซับไทย] [ONE2UP]

2

Avengers: Age of Ultron (2015) อเวนเจอร์ส: มหาศึกอัลตรอนถล่มโลก

โหลดหนัง Avengers: Age of Ultron (2015) อเวนเจอร์ส: มหาศึกอัลตรอนถล่มโลก 

เรื่องย่อ Avengers: Age of Ultron (2015) อเวนเจอร์ส: มหาศึกอัลตรอนถล่มโลก

มหากาพย์ภาคต่อของภาพยนตร์ซูเปอร์ฮีโร่เรื่องยิ่งใหญ่ตลอดกาล เมื่อโทนี่ สตาร์คต้องการที่จะปัดฝุ่นโครงการเพื่อสันติสุขของชาวโลกขึ้นมาอีกครั้ง แต่มันไม่ได้เป็นไปอย่างที่คาดไว้ และเหล่าซูเปอร์ฮีโร่ผู้ทรงพลังอย่าง ไอรอนแมน, กัปตันอเมริกา, ธอร์, ดิ อินเครดิเบิ้ล ฮัลค์, แบล็ค วิโดว์ และ ฮอว์คอาย ต้องเผชิญกับบททดสอบอันยิ่งใหญ่โดยมีชะตากรรมของโลกแขวนอยู่บนเส้นด้าย เมื่อ “อัลตรอน” สุดยอดวายร้ายได้ถือกำเนิด มีเพียงเหล่าอเวนเจอร์สเท่านั้นที่จะสามารถหยุดยั้งเขาและแผนการอันชั่วร้ายของเขาได้ ความวิตกกังวลของเหล่าซูเปอร์ฮีโร่ยอดนักสู้และการกระทำที่ไม่คาดคิดได้นำไปสู่มหากาพย์การผจญภัยระดับโลกที่ไม่มีใครเหมือน

Complete name : [MINI Super-HQ]_Avengers.Age.of.Ultron.2015.1080p.BrRip.DTS.x264.One2loadup.com.mkv
Format : Matroska
Format version : Version 4 / Version 2
File size : 4.77 GiB
Duration : 2 h 21 min
Overall bit rate : 4 836 kb/s
Movie name : [MINI Super-HQ]_Avengers.Age.of.Ultron.2015.1080p.BrRip.DTS.x264.One2loadup.com
Encoded date : UTC 2010-02-22 21:41:31
Writing application : mkvmerge v5.9.0 (‘On The Loose’) built on Dec 9 2012 15:37:01
Writing library : libebml v1.3.0 + libmatroska v1.4.0

Video
ID : 1
Format : AVC
Format/Info : Advanced Video Codec
Format profile : [email protected]
Format settings, CABAC : Yes
Format settings, RefFrames : 8 frames
Codec ID : V_MPEG4/ISO/AVC
Duration : 2 h 21 min
Bit rate : 3 033 kb/s
Width : 1 920 pixels
Height : 804 pixels
Display aspect ratio : 2.40:1
Frame rate mode : Constant
Frame rate : 23.976 FPS
Color space : YUV
Chroma subsampling : 4:2:0
Bit depth : 8 bits
Scan type : Progressive
Bits/(Pixel*Frame) : 0.082
Stream size : 3.11 GiB (65%)
Title : [MINI Super-HQ]_Avengers.Age.of.Ultron.2015.1080p.BrRip.DTS.x264.One2loadup.com
Writing library : x264 core 142 r2479 dd79a61
Encoding settings : cabac=1 / ref=8 / deblock=1:0:0 / analyse=0x3:0x113 / me=esa / subme=11 / psy=1 / psy_rd=1.00:0.00 / mixed_ref=1 / me_range=64 / chroma_me=1 / trellis=2 / 8x8dct=1 / cqm=0 / deadzone=21,11 / fast_pskip=1 / chroma_qp_offset=-2 / threads=36 / lookahead_threads=6 / sliced_threads=0 / nr=0 / decimate=1 / interlaced=0 / bluray_compat=0 / constrained_intra=0 / bframes=8 / b_pyramid=2 / b_adapt=2 / b_bias=0 / direct=1 / weightb=1 / open_gop=0 / weightp=2 / keyint=240 / keyint_min=24 / scenecut=40 / intra_refresh=0 / rc_lookahead=40 / rc=2pass / mbtree=1 / bitrate=3033 / ratetol=1.0 / qcomp=0.60 / qpmin=0 / qpmax=69 / qpstep=4 / cplxblur=20.0 / qblur=0.5 / ip_ratio=1.40 / aq=1:1.00
Language : English
Default : Yes
Forced : No
Color range : Limited
Color primaries : BT.709
Transfer characteristics : BT.709
Matrix coefficients : BT.709

Audio #1
ID : 2
Format : AC-3
Format/Info : Audio Coding 3
Format settings, Endianness : Big
Codec ID : A_AC3
Duration : 2 h 21 min
Bit rate mode : Constant
Bit rate : 640 kb/s
Channel(s) : 6 channels
Channel positions : Front: L C R, Side: L R, LFE
Sampling rate : 48.0 kHz
Frame rate : 31.250 FPS (1536 SPF)
Bit depth : 16 bits
Compression mode : Lossy
Delay relative to video : -83 ms
Stream size : 647 MiB (13%)
Title : Thai BluRay Master
Language : Thai
Service kind : Complete Main
Default : Yes
Forced : Yes

Audio #2
ID : 3
Format : DTS
Format/Info : Digital Theater Systems
Mode : 16
Format settings, Endianness : Big
Codec ID : A_DTS
Duration : 2 h 21 min
Bit rate mode : Constant
Bit rate : 755 kb/s
Channel(s) : 6 channels
Channel positions : Front: L C R, Side: L R, LFE
Sampling rate : 48.0 kHz
Frame rate : 93.750 FPS (512 SPF)
Bit depth : 24 bits
Compression mode : Lossy
Delay relative to video : -83 ms
Stream size : 763 MiB (16%)
Title : English DTS
Language : English
Default : No
Forced : No

Audio #3
ID : 4
Format : AC-3
Format/Info : Audio Coding 3
Format settings, Endianness : Big
Codec ID : A_AC3
Duration : 2 h 21 min
Bit rate mode : Constant
Bit rate : 192 kb/s
Channel(s) : 2 channels
Channel positions : Front: L R
Sampling rate : 48.0 kHz
Frame rate : 31.250 FPS (1536 SPF)
Bit depth : 16 bits
Compression mode : Lossy
Delay relative to video : -83 ms
Stream size : 194 MiB (4%)
Title : Commentary
Language : English
Service kind : Complete Main
Default : No
Forced : No

Text #1
ID : 5
Format : VobSub
Codec ID : S_VOBSUB
Codec ID/Info : Picture based subtitle format used on DVDs
Title : Thai 480p
Language : Thai
Default : No
Forced : No

Text #2
ID : 6
Format : VobSub
Codec ID : S_VOBSUB
Codec ID/Info : Picture based subtitle format used on DVDs
Title : Thai 720p
Language : Thai
Default : No
Forced : No

Text #3
ID : 7
Format : VobSub
Codec ID : S_VOBSUB
Codec ID/Info : Picture based subtitle format used on DVDs
Title : Thai 1080p BluRay Master
Language : Thai
Default : Yes
Forced : Yes

Text #4
ID : 8
Format : VobSub
Codec ID : S_VOBSUB
Codec ID/Info : Picture based subtitle format used on DVDs
Title : Thai 1080p Angsana
Language : Thai
Default : No
Forced : No

Text #5
ID : 9
Format : VobSub
Codec ID : S_VOBSUB
Codec ID/Info : Picture based subtitle format used on DVDs
Title : Thai 1080p Yellow
Language : Thai
Default : No
Forced : No

Text #6
ID : 10
Format : VobSub
Codec ID : S_VOBSUB
Codec ID/Info : Picture based subtitle format used on DVDs
Title : Thai 1080p BIG
Language : Thai
Default : No
Forced : No

Text #7
ID : 11
Format : VobSub
Codec ID : S_VOBSUB
Codec ID/Info : Picture based subtitle format used on DVDs
Title : Thai 1080p Out
Language : Thai
Default : No
Forced : No

Text #8
ID : 12
Format : VobSub
Codec ID : S_VOBSUB
Codec ID/Info : Picture based subtitle format used on DVDs
Title : Thai 1080p Out [BIG]
Language : Thai
Default : No
Forced : No

Text #9
ID : 13
Format : PGS
Codec ID : S_HDMV/PGS
Codec ID/Info : Picture based subtitle format used on BDs/HD-DVDs
Title : Thai PGS BluRay Master
Language : Thai
Default : No
Forced : No

Text #10
ID : 14
Format : PGS
Codec ID : S_HDMV/PGS
Codec ID/Info : Picture based subtitle format used on BDs/HD-DVDs
Title : Thai PGS Angsana
Language : Thai
Default : No
Forced : No

Text #11
ID : 15
Format : PGS
Codec ID : S_HDMV/PGS
Codec ID/Info : Picture based subtitle format used on BDs/HD-DVDs
Title : Thai PGS Yellow
Language : Thai
Default : No
Forced : No

Text #12
ID : 16
Format : PGS
Codec ID : S_HDMV/PGS
Codec ID/Info : Picture based subtitle format used on BDs/HD-DVDs
Title : Thai PGS Out
Language : Thai
Default : No
Forced : No

Text #13
ID : 17
Format : VobSub
Codec ID : S_VOBSUB
Codec ID/Info : Picture based subtitle format used on DVDs
Title : English
Language : English
Default : No
Forced : No

Text #14
ID : 18
Format : VobSub
Codec ID : S_VOBSUB
Codec ID/Info : Picture based subtitle format used on DVDs
Title : Commentary
Language : English
Default : No
Forced : No

Text #15
ID : 19
Format : VobSub
Codec ID : S_VOBSUB
Codec ID/Info : Picture based subtitle format used on DVDs
Title : Commentary
Language : English
Default : No
Forced : No

Menu
00:00:00.000 : en:00:00:00.000
00:12:15.193 : en:00:12:15.193
00:21:23.949 : en:00:21:23.949
00:33:01.771 : en:00:33:01.771
00:36:07.624 : en:00:36:07.624
00:42:00.768 : en:00:42:00.768
00:52:44.745 : en:00:52:44.745
00:59:01.872 : en:00:59:01.872
01:15:51.088 : en:01:15:51.088
01:27:08.598 : en:01:27:08.598
01:36:44.757 : en:01:36:44.757
01:54:35.327 : en:01:54:35.327
02:06:27.580 : en:02:06:27.580
02:11:08.027 : en:02:11:08.027

 

Avengers: Age of Ultron (2015) อเวนเจอร์ส: มหาศึกอัลตรอนถล่มโลก

DOWNLOAD


PART01 |||| PART02 |||| PART03 |||| PART04 |||| PART05

PART01 |||| PART02 |||| PART03 |||| PART04 |||| PART05

PART01 |||| PART02 |||| PART03 |||| PART04 |||| PART05

PART01 |||| PART02 |||| PART03 |||| PART04 |||| PART05


2 Comments
  1. นิชคุณ says

    โหลดไม่ได้เลยงั้บแอ๊ด

    1. Admin
      Admin says

      แก้ไขเรียบร้อยฮ๊ะ

Leave A Reply

Your email address will not be published.

%d bloggers like this: