[MINI Super-HQ] ATM (2012) ตู้ กด ตาย [1080p] [พากย์ไทย 5.1 + เสียงอังกฤษ DTS] [บรรยายไทย + อังกฤษ] [เสียงไทย + ซับไทย] [OPENLOAD]

0

ATM (2012) ตู้ กด ตาย

โหลดหนัง  ATM (2012) ตู้ กด ตาย

ATM (2012) 1h 30min | Horror, Thriller | 26 July 2012 (Netherlands) Summary: On a late night visit to an ATM, three co-workers end up in a desperate fight for their lives when they become trapped by an unknown man.
Countries: USA, CanadaLanguages: English

เรื่องย่อ ATM (2012) ตู้ กด ตาย

การหนีเอาชีวิตรอดจากสถานที่ปิดตาย ATM เมื่อกลุ่มเพื่อนกลุ่มหนึ่งกำลังเดินทางกลับบ้าน แต่ทว่ามีคนหนึ่งในกลุ่มเกิดหิวขึ้นมาแล้วตอนนี้ก็ดึ กมากแล้ว ร้านเปิดกลางคืนไม่รับบัตรเครดิตรับแต่เงินสดดังนั้น พวกเขาจึงแวะเขาไปกดเงินที่ตู้ ATM แห่งหนึ่ง แต่เมื่อจู่ๆ ATM ดันเออเร่อไม่สามารถกดเงินได้ เขาจึงเรียกเพื่อนเขามาช่วยดูทำให้ตอนนี้ทุกคนติดอยู ่ข้างในตู้ ทันที่ที่พวกเขาแก้ปัญหาได้และกำลังจะออกจากตู้ก็มีช ายปริศนามายืนขวางพวกเขาไว้ ชายคนนี้เป็นใคร เขาต้องการอะไร แต่ที่แน่ๆเขาฆ่าคนไปแล้วคนหนึ่ง คนที่ไม่รู้อิโหน่อิเหน่เสียด้วยซ้ำไป สิ่งเดียวที่ป้องกันพวกเขาจากฆาตกรใจโฉดคือตู้ ATM ที่เป็นระบบนิรภัย จะเข้าได้ต้องรูดบัตรผ่านเข้ามาเท่านั้น พวกเขาจึงปลอดภัยและคิดว่าจะรอจนกว่าจะเช้าผู้คนจะพล ุกพล่านแล้วพวกเขาก็จะรอดจากสถานการณ์นี้ไปได้ แต่มันจะเป็นเช่นนั้นจริงหรอเมื่อเริ่มดึกขึ้นอากาศเ ย็นจนติดลบหลายองศา สิ่งที่ทำให้พวกเขาอบอุ่นได้มีเพียงเครื่องทำความร้อ นที่ติดอยู่ภายในตู้เท่านั้น ซึ่งตอนนี้มันไม่ทำงานแล้ว ! ใช่แล้วเจ้าฆาตกรมันตัดระบบทำความร้อนของตู้ไปแล้ว พวกเขาต้องแข็งตายก่อนจะถึงเช้าแน่นอน พวกเขาต้องหาทางหนีก่อนที่ร่างกายจะขยับไม่ไหวและแข็ งตายไปในที่สุด

Complete name : [MINI Super-HQ]_ATM.2012.1080p.BrRip.DTS.x264.One2loadup.com.mkv
Format : Matroska
Format version : Version 4
File size : 4.87 GiB
Duration : 1 h 30 min
Overall bit rate : 7 717 kb/s
Movie name : [MINI Super-HQ]_ATM.2012.1080p.BrRip.DTS.x264.One2loadup.com
Encoded date : UTC 2017-03-27 04:35:17
Writing application : mkvmerge v9.9.0 (‘Pick Up’) 32bit
Writing library : libebml v1.3.4 + libmatroska v1.4.5

Video
ID : 1
Format : AVC
Format/Info : Advanced Video Codec
Format profile : [email protected]
Format settings : CABAC / 4 Ref Frames
Format settings, CABAC : Yes
Format settings, ReFrames : 4 frames
Codec ID : V_MPEG4/ISO/AVC
Duration : 1 h 30 min
Bit rate : 5 700 kb/s
Width : 1 920 pixels
Height : 1 036 pixels
Display aspect ratio : 1.85:1
Frame rate mode : Constant
Frame rate : 23.976 (24000/1001) FPS
Color space : YUV
Chroma subsampling : 4:2:0
Bit depth : 8 bits
Scan type : Progressive
Bits/(Pixel*Frame) : 0.120
Stream size : 3.59 GiB (74%)
Title : [MINI Super-HQ]_ATM.2012.1080p.BrRip.DTS.x264.One2loadup.com
Writing library : x264 core 122 r2184 5c85e0a
Encoding settings : cabac=1 / ref=4 / deblock=1:-3:-3 / analyse=0x3:0x113 / me=umh / subme=11 / psy=1 / psy_rd=1.20:0.20 / mixed_ref=1 / me_range=24 / chroma_me=1 / trellis=2 / 8x8dct=1 / cqm=0 / deadzone=21,11 / fast_pskip=1 / chroma_qp_offset=-3 / threads=6 / sliced_threads=0 / nr=0 / decimate=1 / interlaced=0 / bluray_compat=0 / constrained_intra=0 / bframes=9 / b_pyramid=2 / b_adapt=2 / b_bias=0 / direct=3 / weightb=1 / open_gop=0 / weightp=2 / keyint=250 / keyint_min=23 / scenecut=40 / intra_refresh=0 / rc_lookahead=60 / rc=2pass / mbtree=1 / bitrate=5700 / ratetol=1.0 / qcomp=0.60 / qpmin=0 / qpmax=69 / qpstep=4 / cplxblur=20.0 / qblur=0.5 / ip_ratio=1.40 / aq=1:1.00
Default : Yes
Forced : No

Audio #1
ID : 2
Format : AC-3
Format/Info : Audio Coding 3
Commercial name : Dolby Digital
Codec ID : A_AC3
Duration : 1 h 30 min
Bit rate mode : Constant
Bit rate : 448 kb/s
Channel(s) : 6 channels
Channel layout : L R C LFE Ls Rs
Sampling rate : 48.0 kHz
Frame rate : 31.250 FPS (1536 SPF)
Bit depth : 16 bits
Compression mode : Lossy
Delay relative to video : 9 s 0 ms
Stream size : 289 MiB (6%)
Title : THAI AC-3 448 kbps 6ch DVD Master
Language : Thai
Service kind : Complete Main
Default : Yes
Forced : Yes

Audio #2
ID : 3
Format : DTS
Format/Info : Digital Theater Systems
Codec ID : A_DTS
Duration : 1 h 30 min
Bit rate mode : Constant
Bit rate : 1 509 kb/s
Channel(s) : 6 channels
Channel layout : C L R Ls Rs LFE
Sampling rate : 48.0 kHz
Frame rate : 93.750 FPS (512 SPF)
Bit depth : 24 bits
Compression mode : Lossy
Stream size : 974 MiB (20%)
Title : ENG DTS 1510 Kbps 6ch Original
Language : English
Default : No
Forced : No

Text #1
ID : 4
Format : VobSub
Muxing mode : zlib
Codec ID : S_VOBSUB
Codec ID/Info : Picture based subtitle format used on DVDs
Duration : 1 h 12 min
Bit rate : 1 549 b/s
Count of elements : 926
Stream size : 824 KiB (0%)
Title : THA 480p From DVD Master
Language : Thai
Default : No
Forced : No

Text #2
ID : 5
Format : VobSub
Muxing mode : zlib
Codec ID : S_VOBSUB
Codec ID/Info : Picture based subtitle format used on DVDs
Duration : 1 h 12 min
Bit rate : 2 806 b/s
Count of elements : 926
Stream size : 1.46 MiB (0%)
Title : THAI 720p AS
Language : Thai
Default : No
Forced : No

Text #3
ID : 6
Format : VobSub
Muxing mode : zlib
Codec ID : S_VOBSUB
Codec ID/Info : Picture based subtitle format used on DVDs
Duration : 1 h 12 min
Bit rate : 4 644 b/s
Count of elements : 926
Stream size : 2.41 MiB (0%)
Title : THAI 1080p AS
Language : Thai
Default : No
Forced : No

Text #4
ID : 7
Format : VobSub
Muxing mode : zlib
Codec ID : S_VOBSUB
Codec ID/Info : Picture based subtitle format used on DVDs
Duration : 1 h 12 min
Bit rate : 4 644 b/s
Count of elements : 926
Stream size : 2.41 MiB (0%)
Title : THAI1080p AS Yellow
Language : Thai
Default : No
Forced : No

Text #5
ID : 8
Format : VobSub
Muxing mode : zlib
Codec ID : S_VOBSUB
Codec ID/Info : Picture based subtitle format used on DVDs
Duration : 1 h 12 min
Bit rate : 4 073 b/s
Count of elements : 926
Stream size : 2.12 MiB (0%)
Title : THAI 1080p FS
Language : Thai
Default : Yes
Forced : Yes

Text #6
ID : 9
Format : VobSub
Muxing mode : zlib
Codec ID : S_VOBSUB
Codec ID/Info : Picture based subtitle format used on DVDs
Duration : 1 h 12 min
Bit rate : 4 074 b/s
Count of elements : 926
Stream size : 2.12 MiB (0%)
Title : THAI 1080p FS Yellow
Language : Thai
Default : No
Forced : No

Text #7
ID : 10
Format : PGS
Muxing mode : zlib
Codec ID : S_HDMV/PGS
Codec ID/Info : Picture based subtitle format used on BDs/HD-DVDs
Duration : 1 h 12 min
Bit rate : 19.0 kb/s
Count of elements : 1852
Stream size : 9.85 MiB (0%)
Title : THAI PGS AS
Language : Thai
Default : No
Forced : No

Text #8
ID : 11
Format : PGS
Muxing mode : zlib
Codec ID : S_HDMV/PGS
Codec ID/Info : Picture based subtitle format used on BDs/HD-DVDs
Duration : 1 h 12 min
Bit rate : 16.2 kb/s
Count of elements : 1852
Stream size : 8.43 MiB (0%)
Title : THAI PGS FS
Language : Thai
Default : No
Forced : No

Text #9
ID : 12
Format : PGS
Muxing mode : zlib
Codec ID : S_HDMV/PGS
Codec ID/Info : Picture based subtitle format used on BDs/HD-DVDs
Duration : 1 h 12 min
Bit rate : 15.0 kb/s
Count of elements : 1852
Stream size : 7.80 MiB (0%)
Title : THAI PGS TA Out
Default : No
Forced : No

Text #10
ID : 13
Format : UTF-8
Codec ID : S_TEXT/UTF8
Codec ID/Info : UTF-8 Plain Text
Duration : 1 h 10 min
Bit rate : 42 b/s
Count of elements : 731
Stream size : 22.1 KiB (0%)
Title : ENG Subtitles Full
Language : English
Default : No
Forced : No

DOWNLOAD


PART01 |||| PART02 |||| PART03 |||| PART04 |||| PART05

PART01 |||| PART02 |||| PART03 |||| PART04 |||| PART05

PART01 |||| PART02 |||| PART03 |||| PART04 |||| PART05

PART01 |||| PART02 |||| PART03 |||| PART04 |||| PART05


Leave A Reply

Your email address will not be published.

%d bloggers like this: