โหลดหนัง HD MINI-HD SUPER-HQ Full-HD 1080p VIP Master Zoom ซูม หนังใหม่ ออนไลน์ มาสเตอร์ ไทย จีน ฝรั่ง การ์ตูน

[MINI Super-HQ] American Ultra (2015) พยัคฆ์ร้ายสายซี๊ดดดด [1080p] [พากย์ไทย 5.1 + อังกฤษ DTS] [บรรยายไทย + อังกฤษ] [เสียงไทย + ซับไทย] [ONE2UP]

0

American Ultra (2015) พยัคฆ์ร้ายสายซี๊ดดดด

โหลดหนัง  American Ultra (2015) พยัคฆ์ร้ายสายซี๊ดดดด

เรื่องย่อ American Ultra (2015) พยัคฆ์ร้ายสายซี๊ดดดด

เป็นเรื่องราวของไมค์ รับบทโดย เจสซี่ ไอเซนเบิร์ก เล่นเป็นหนุ่มติดกัญชาที่อาศัยอยู่กับแฟนสาวชื่อว่า ฟิบี้ ซึ่งรับบทโดย คริสเตน สจ๊วต เรื่องราวความสัมพันธ์ต้องผกผักเมื่อไมค์เข้าไปเป็นส ายลับแฝงตัวในองค์กรสุดอันตราย และใช้สัญชาตญาณการเอาตัวรอดในปฏิบัติการครั้งนี้ ทำให้คู่รักต้องถืออาวุธต่อสู้ฟาดฟัน ถือเป็นหนังแอ็คชั่น คอมเมดี้ที่น่าติดตามมาก!!!

Complete name : [MINI Super-HQ]_American.Ultra.2015.1080p.DTS.x264.One2loadup.com.mkv
Format : Matroska
Format version : Version 4 / Version 2
File size : 3.94 GiB
Duration : 1 h 35 min
Overall bit rate : 5 892 kb/s
Movie name : [MINI Super-HQ]_American.Ultra.2015.1080p.DTS.x264.One2loadup.com
Encoded date : UTC 2016-03-25 05:49:04
Writing application : mkvmerge v8.9.0 (‘Father Daughter’) 32bit
Writing library : libebml v1.3.3 + libmatroska v1.4.4

Video
ID : 1
Format : AVC
Format/Info : Advanced Video Codec
Format profile : [email protected]
Format settings : CABAC / 4 Ref Frames
Format settings, CABAC : Yes
Format settings, ReFrames : 4 frames
Codec ID : V_MPEG4/ISO/AVC
Duration : 1 h 35 min
Bit rate : 4 631 kb/s
Width : 1 920 pixels
Height : 1 032 pixels
Display aspect ratio : 1.85:1
Frame rate mode : Constant
Frame rate : 23.976 FPS
Color space : YUV
Chroma subsampling : 4:2:0
Bit depth : 8 bits
Scan type : Progressive
Bits/(Pixel*Frame) : 0.097
Stream size : 3.10 GiB (79%)
Title : [MINI Super-HQ]_American.Ultra.2015.1080p.DTS.x264.One2loadup.com
Writing library : x264 core 146 r2538 121396c
Encoding settings : cabac=1 / ref=4 / deblock=1:-3:-3 / analyse=0x3:0x113 / me=umh / subme=11 / psy=1 / psy_rd=1.00:0.00 / mixed_ref=1 / me_range=64 / chroma_me=1 / trellis=2 / 8x8dct=1 / cqm=0 / deadzone=21,11 / fast_pskip=1 / chroma_qp_offset=-2 / threads=24 / lookahead_threads=2 / sliced_threads=0 / nr=0 / decimate=1 / interlaced=0 / bluray_compat=0 / constrained_intra=0 / bframes=4 / b_pyramid=2 / b_adapt=1 / b_bias=0 / direct=1 / weightb=1 / open_gop=0 / weightp=2 / keyint=250 / keyint_min=23 / scenecut=40 / intra_refresh=0 / rc_lookahead=120 / rc=2pass / mbtree=1 / bitrate=4631 / ratetol=1.0 / qcomp=0.60 / qpmin=0 / qpmax=69 / qpstep=4 / cplxblur=20.0 / qblur=0.5 / vbv_maxrate=99999 / vbv_bufsize=99999 / nal_hrd=none / filler=0 / ip_ratio=1.40 / aq=1:1.00
Language : English
Default : Yes
Forced : Yes

Audio #1
ID : 2
Format : AC-3
Format/Info : Audio Coding 3
Codec ID : A_AC3
Duration : 1 h 35 min
Bit rate mode : Constant
Bit rate : 384 kb/s
Channel(s) : 6 channels
Channel positions : Front: L C R, Side: L R, LFE
Sampling rate : 48.0 kHz
Frame rate : 31.250 FPS (1536 SPF)
Bit depth : 16 bits
Compression mode : Lossy
Stream size : 263 MiB (7%)
Title : AC3 DVD MASTER
Language : Thai
Service kind : Complete Main
Default : Yes
Forced : Yes

Audio #2
ID : 3
Format : DTS
Format/Info : Digital Theater Systems
Codec ID : A_DTS
Duration : 1 h 35 min
Bit rate mode : Constant
Bit rate : 755 kb/s
Channel(s) : 6 channels
Channel positions : Front: L C R, Side: L R, LFE
Sampling rate : 48.0 kHz
Frame rate : 93.750 FPS (512 SPF)
Bit depth : 24 bits
Compression mode : Lossy
Stream size : 516 MiB (13%)
Title : DTS
Language : English
Default : No
Forced : No

Text #1
ID : 4
Format : VobSub
Codec ID : S_VOBSUB
Codec ID/Info : Picture based subtitle format used on DVDs
Title : 1080P DN
Language : Thai
Default : No
Forced : No

Text #2
ID : 5
Format : VobSub
Codec ID : S_VOBSUB
Codec ID/Info : Picture based subtitle format used on DVDs
Title : 1080P DN YELLOW
Language : Thai
Default : No
Forced : No

Text #3
ID : 6
Format : VobSub
Codec ID : S_VOBSUB
Codec ID/Info : Picture based subtitle format used on DVDs
Title : 1080P TSA
Language : Thai
Default : No
Forced : No

Text #4
ID : 7
Format : VobSub
Codec ID : S_VOBSUB
Codec ID/Info : Picture based subtitle format used on DVDs
Title : 480P TSA
Language : Thai
Default : No
Forced : No

Text #5
ID : 8
Format : UTF-8
Codec ID : S_TEXT/UTF8
Codec ID/Info : UTF-8 Plain Text
Title : SRT OCR
Language : Thai
Default : No
Forced : No

Text #6
ID : 9
Format : UTF-8
Codec ID : S_TEXT/UTF8
Codec ID/Info : UTF-8 Plain Text
Title : SDH
Language : English
Default : No
Forced : No

Text #7
ID : 10
Format : PGS
Codec ID : S_HDMV/PGS
Codec ID/Info : Picture based subtitle format used on BDs/HD-DVDs
Title : DN
Language : Thai
Default : Yes
Forced : Yes

Text #8
ID : 11
Format : PGS
Codec ID : S_HDMV/PGS
Codec ID/Info : Picture based subtitle format used on BDs/HD-DVDs
Title : TSA
Language : Thai
Default : No
Forced : No

Text #9
ID : 12
Format : PGS
Codec ID : S_HDMV/PGS
Codec ID/Info : Picture based subtitle format used on BDs/HD-DVDs
Title : BD MASTER
Language : English
Default : No
Forced : No

Menu
00:00:00.000 : en:00:00:00.000
00:03:47.727 : en:00:03:47.727
00:09:28.985 : en:00:09:28.985
00:16:40.583 : en:00:16:40.583
00:22:15.918 : en:00:22:15.918
00:26:45.979 : en:00:26:45.979
00:33:28.632 : en:00:33:28.632
00:37:54.230 : en:00:37:54.230
00:42:31.048 : en:00:42:31.048
00:48:55.849 : en:00:48:55.849
00:55:13.393 : en:00:55:13.393
01:00:11.274 : en:01:00:11.274
01:06:12.302 : en:01:06:12.302
01:10:14.669 : en:01:10:14.669
01:18:38.922 : en:01:18:38.922
01:25:14.693 : en:01:25:14.693

DOWNLOAD


PART01 |||| PART02 |||| PART03 |||| PART04

PART01 |||| PART02 |||| PART03 |||| PART04

PART01 |||| PART02 |||| PART03 |||| PART04

PART01 |||| PART02 |||| PART03 |||| PART04


Leave A Reply

Your email address will not be published.

%d bloggers like this: