โหลดหนัง HD MINI-HD SUPER-HQ Full-HD 1080p VIP Master Zoom ซูม หนังใหม่ ออนไลน์ มาสเตอร์ ไทย จีน ฝรั่ง การ์ตูน

[MINI Super-HQ] American Pie Presents: Band Camp (2005) แผนป่วนแคมป์แล้วแอ้มสาว ภาค 4 [1080p] [พากย์ไทย 5.1 + เสียงอังกฤษ 5.1] [บรรยายไทย + อังกฤษ] [เสียงไทย + ซับไทย] [OPENLOAD]

0

American Pie Presents: Band Camp (2005) แผนป่วนแคมป์แล้วแอ้มสาว ภาค 4

โหลดหนัง American Pie Presents: Band Camp (2005) แผนป่วนแคมป์แล้วแอ้มสาว ภาค 4 

เรื่องย่อ American Pie Presents: Band Camp (2005) แผนป่วนแคมป์แล้วแอ้มสาว ภาค 4

แมทท์ น้องชายคนเล็กของ สติฟเลอร์ ที่ถูกลงโทษให้เข้าค่ายฤดูร้อนในแคมป์ดนตรีธรรมดา ๆ แห่งหนึ่ง ที่นั่นเองเขาได้ทำเรื่องแสบขึ้นไปอีก ด้วยการติดตั้งกล้องแอบถ่ายพร้อมกับมีที่ปรึกษาสุดฮอ ท แต่เมื่อเขาไปหลงเสน่ห์สาวเชียร์ อีลีส แน่นอนว่าผลลัพธ์ร้ายแรงมันรอเขาอยู่ข้างหน้าเห็นๆ งานนี้พ่อของจิม ต้องหวนกลับมารับบทที่ปรึกษาสุดเพี้ยนอีกหน แม้ว่าจะสุดทนในการช่วยเหลือน้องคนเล็กของสติฟเลอร์ ให้กลับมาอยู่กับร่องกับรอยก็ตาม

Complete name : [MINI Super-HQ]_4.American.Pie.Presents.Band.Camp.2005.1080p.BrRip.AC3.x264.One2loadup.com.mkv
Format : Matroska
Format version : Version 4
File size : 3.89 GiB
Duration : 1 h 31 min
Overall bit rate : 6 120 kb/s
Movie name : [MINI Super-HQ]_4.American.Pie.Presents.Band.Camp.2005.1080p.BrRip.AC3.x264.One2loadup.com
Encoded date : UTC 2015-09-12 20:52:15
Writing application : mkvmerge v7.9.0 (‘Birds’) 64bit
Writing library : libebml v1.3.1 + libmatroska v1.4.2

Video
ID : 1
Format : AVC
Format/Info : Advanced Video Codec
Format profile : [email protected]
Format settings : CABAC / 4 Ref Frames
Format settings, CABAC : Yes
Format settings, ReFrames : 4 frames
Codec ID : V_MPEG4/ISO/AVC
Duration : 1 h 31 min
Bit rate : 5 230 kb/s
Width : 1 908 pixels
Height : 1 076 pixels
Display aspect ratio : 16:9
Original display aspect rat : 16:9
Frame rate mode : Constant
Frame rate : 23.976 (24000/1001) FPS
Color space : YUV
Chroma subsampling : 4:2:0
Bit depth : 8 bits
Scan type : Progressive
Bits/(Pixel*Frame) : 0.106
Stream size : 3.33 GiB (85%)
Title : [MINI Super-HQ]_4.American.Pie.Presents.Band.Camp.2005.1080p.BrRip.AC3.x264.One2loadup.com
Language : English
Default : Yes
Forced : No
Color range : Limited
Color primaries : BT.709
Transfer characteristics : BT.709
Matrix coefficients : BT.709

Audio #1
ID : 2
Format : AC-3
Format/Info : Audio Coding 3
Commercial name : Dolby Digital
Codec ID : A_AC3
Duration : 1 h 31 min
Bit rate mode : Constant
Bit rate : 384 kb/s
Channel(s) : 6 channels
Channel layout : L R C LFE Ls Rs
Sampling rate : 48.0 kHz
Frame rate : 31.250 FPS (1536 SPF)
Bit depth : 16 bits
Compression mode : Lossy
Stream size : 250 MiB (6%)
Title : [ENG AC3 FROM DVD MASTER]
Language : English
Service kind : Complete Main
Default : No
Forced : No

Audio #2
ID : 3
Format : AC-3
Format/Info : Audio Coding 3
Commercial name : Dolby Digital
Codec ID : A_AC3
Duration : 1 h 31 min
Bit rate mode : Constant
Bit rate : 384 kb/s
Channel(s) : 6 channels
Channel layout : L R C LFE Ls Rs
Sampling rate : 48.0 kHz
Frame rate : 31.250 FPS (1536 SPF)
Bit depth : 16 bits
Compression mode : Lossy
Delay relative to video : 1 s 0 ms
Stream size : 250 MiB (6%)
Title : [THAI AC3 FROM DVD MASTER]
Language : Thai
Service kind : Complete Main
Default : Yes
Forced : No

Text #1
ID : 4
Format : VobSub
Codec ID : S_VOBSUB
Codec ID/Info : Picture based subtitle format used on DVDs
Title : [SUB THAI 480P FROM DVD MASTER]
Language : Thai
Default : No
Forced : No

Text #2
ID : 5
Format : VobSub
Codec ID : S_VOBSUB
Codec ID/Info : Picture based subtitle format used on DVDs
Title : [SUB THAI 1080P FROM DVD MASTER] TH Angsana UPC
Language : Thai
Default : Yes
Forced : No

Text #3
ID : 6
Format : VobSub
Codec ID : S_VOBSUB
Codec ID/Info : Picture based subtitle format used on DVDs
Title : [SUB THAI 1080P FROM DVD MASTER] TH Sarabun
Language : Thai
Default : No
Forced : No

Text #4
ID : 7
Format : PGS
Codec ID : S_HDMV/PGS
Codec ID/Info : Picture based subtitle format used on BDs/HD-DVDs
Title : THAI PGS Angsana UPC
Language : Thai
Default : No
Forced : No

Text #5
ID : 8
Format : PGS
Codec ID : S_HDMV/PGS
Codec ID/Info : Picture based subtitle format used on BDs/HD-DVDs
Title : THAI PGS TH Sarabun
Language : Thai
Default : No
Forced : No

Text #6
ID : 9
Format : UTF-8
Codec ID : S_TEXT/UTF8
Codec ID/Info : UTF-8 Plain Text
Title : ENG HI SRT
Language : English
Default : No
Forced : No

DOWNLOAD


PART01 |||| PART02 |||| PART03 |||| PART04

PART01 |||| PART02 |||| PART03 |||| PART04

PART01 |||| PART02 |||| PART03 |||| PART04

PART01 |||| PART02 |||| PART03 |||| PART04


Leave A Reply

Your email address will not be published.

%d bloggers like this: