โหลดหนัง HD MINI-HD SUPER-HQ Full-HD 1080p VIP Master Zoom ซูม หนังใหม่ ออนไลน์ มาสเตอร์ ไทย จีน ฝรั่ง การ์ตูน

[MINI Super-HQ] American Pie 2 (2001) อเมริกันพาย จุ๊จุ๊จุ๊…แอ้มสาวให้ได้ก่อนเปิดเทอม ภาค 2 [1080p] [พากย์ไทย DTS + เสียงอังกฤษ DTS] [บรรยายไทย + อังกฤษ] [เสียงไทย + ซับไทย] [OPENLOAD]

0

American Pie 2 (2001) อเมริกันพาย ภาค 2

โหลดหนัง American Pie 2 (2001) อเมริกันพาย จุ๊จุ๊จุ๊…แอ้มสาวให้ได้ก่อนเปิดเทอม ภาค 2

เรื่องย่อ American Pie 2 (2001) อเมริกันพาย จุ๊จุ๊จุ๊…แอ้มสาวให้ได้ก่อนเปิดเทอม ภาค 2

เรื่องราวที่เป็นผู้ใหญ่มากขึ้น หลังจากปีแรกของพวกเขาที่วิทยาลัย พวกหนุ่มๆ ได้แก่ Jim , Kevin , Oz , Finch และ Stifle ได้เช่าบ้านชายหาดหลังหนึ่ง ปฏิญาณต่อกันว่าจะฉลองมิตรภาพ ของพวกเขาให้สนุกสุดเหวี่ยง และทำให้มันเป็นฤดูร้อน ที่เยี่ยมที่สุดของพวกเขา แต่อย่างเคย ความฝันของพวกเขาจะเป็นจริงหรือไม่นั้น ก็ขึ้นอยู่กับพวกสาวๆ อันได้แก่ Vicky , Michelle , Nadia , Heathe และ Jessica ด้วย ตลอดช่วงฤดูร้อนที่วุ่นวาย แห่งงานเลี้ยงเสียงอึกทึก รวมทั้งเรื่องเลว ร้ายและที่แน่ๆ การเดินทางไปค่าย ทำให้พวกเขาค้นพบว่า แม้เวลาเปลี่ยนไป ผู้คนเปลี่ยนแปลง แต่มิตรภาพของพวกเขา จะคงอยู่ตลอดไป

Complete name : [MINI Super-HQ]_2.American.Pie.Unrated.2001.1080p.BrRip.DTS.x264.One2loadup.com.mkv
Format : Matroska
Format version : Version 4
File size : 4.33 GiB
Duration : 1 h 50 min
Overall bit rate mode : Variable
Overall bit rate : 5 607 kb/s
Movie name : [MINI Super-HQ]_2.American.Pie.2.Unrated.2001.1080p.BrRip.DTS.x264.One2loadup.com
Encoded date : UTC 2015-03-06 16:08:06
Writing application : mkvmerge v7.7.0 (‘Six Voices’) 64bit built on Feb 28 2015 23:39:33
Writing library : libebml v1.3.1 + libmatroska v1.4.2

Video
ID : 1
Format : AVC
Format/Info : Advanced Video Codec
Format profile : [email protected]
Format settings : CABAC / 4 Ref Frames
Format settings, CABAC : Yes
Format settings, ReFrames : 4 frames
Codec ID : V_MPEG4/ISO/AVC
Duration : 1 h 50 min
Bit rate mode : Variable
Bit rate : 4 000 kb/s
Maximum bit rate : 100.0 Mb/s
Width : 1 920 pixels
Height : 1 040 pixels
Display aspect ratio : 1.85:1
Frame rate mode : Constant
Frame rate : 23.976 (24000/1001) FPS
Color space : YUV
Chroma subsampling : 4:2:0
Bit depth : 8 bits
Scan type : Progressive
Bits/(Pixel*Frame) : 0.084
Stream size : 3.07 GiB (71%)
Title : [MINI Super-HQ]_2.American.Pie.2.Unrated.2001.1080p.BrRip.DTS.x264.One2loadup.com
Writing library : x264 core 120 r2145M 748fe16
Encoding settings : cabac=1 / ref=4 / deblock=1:0:0 / analyse=0x3:0x133 / me=umh / subme=11 / psy=1 / psy_rd=1.00:0.15 / mixed_ref=1 / me_range=64 / chroma_me=1 / trellis=2 / 8x8dct=1 / cqm=0 / deadzone=21,11 / fast_pskip=1 / chroma_qp_offset=-3 / threads=8 / sliced_threads=0 / nr=0 / decimate=1 / interlaced=0 / bluray_compat=0 / constrained_intra=0 / bframes=4 / b_pyramid=2 / b_adapt=2 / b_bias=0 / direct=3 / weightb=1 / open_gop=0 / weightp=2 / keyint=230 / keyint_min=23 / scenecut=40 / intra_refresh=0 / rc_lookahead=120 / rc=2pass / mbtree=1 / bitrate=4000 / ratetol=1.0 / qcomp=0.60 / qpmin=0 / qpmax=69 / qpstep=4 / cplxblur=20.0 / qblur=0.5 / vbv_maxrate=99999 / vbv_bufsize=99999 / nal_hrd=vbr / ip_ratio=1.40 / aq=1:1.00
Language : English
Default : Yes
Forced : No

Audio #1
ID : 2
Format : DTS
Format/Info : Digital Theater Systems
Codec ID : A_DTS
Duration : 1 h 50 min
Bit rate mode : Constant
Bit rate : 755 kb/s
Channel(s) : 6 channels
Channel layout : C L R Ls Rs LFE
Sampling rate : 48.0 kHz
Frame rate : 93.750 FPS (512 SPF)
Bit depth : 24 bits
Compression mode : Lossy
Stream size : 597 MiB (13%)
Title : ENG DTS
Language : English
Default : No
Forced : No

Audio #2
ID : 3
Format : DTS
Format/Info : Digital Theater Systems
Codec ID : A_DTS
Duration : 1 h 50 min
Bit rate mode : Constant
Bit rate : 768 kb/s
Channel(s) : 6 channels
Channel layout : C L R Ls Rs LFE
Sampling rate : 48.0 kHz
Frame rate : 93.750 FPS (512 SPF)
Bit depth : 24 bits
Compression mode : Lossy
Stream size : 608 MiB (14%)
Title : [THAI DTS FROM BLU-RAY MASTER]
Language : Thai
Default : Yes
Forced : No

Text #1
ID : 4
Format : VobSub
Codec ID : S_VOBSUB
Codec ID/Info : Picture based subtitle format used on DVDs
Title : [SUB THAI 480P FROM BLU-RAY]
Language : Thai
Default : No
Forced : No

Text #2
ID : 5
Format : VobSub
Codec ID : S_VOBSUB
Codec ID/Info : Picture based subtitle format used on DVDs
Title : [SUB THAI 1080P FROM BLU-RAY]
Language : Thai
Default : Yes
Forced : No

Text #3
ID : 6
Format : PGS
Codec ID : S_HDMV/PGS
Codec ID/Info : Picture based subtitle format used on BDs/HD-DVDs
Title : [SUB THAI PGS FROM BLU-RAY]
Language : Thai
Default : No
Forced : No

Text #4
ID : 7
Format : PGS
Codec ID : S_HDMV/PGS
Codec ID/Info : Picture based subtitle format used on BDs/HD-DVDs
Title : [SUB ENG PGS FROM BLU-RAY]
Language : English
Default : No
Forced : No

DOWNLOAD


PART01 |||| PART02 |||| PART03 |||| PART04 |||| PART05

PART01 |||| PART02 |||| PART03 |||| PART04 |||| PART05

PART01 |||| PART02 |||| PART03 |||| PART04 |||| PART05

PART01 |||| PART02 |||| PART03 |||| PART04 |||| PART05


Leave A Reply

Your email address will not be published.

%d bloggers like this: