โหลดหนัง HD MINI-HD SUPER-HQ Full-HD 1080p VIP Master Zoom ซูม หนังใหม่ ออนไลน์ มาสเตอร์ ไทย จีน ฝรั่ง การ์ตูน

[MINI Super-HQ] American Pie (1999) อเมริกันพาย แอ้มสาวให้ได้ก่อนปลายเทอม ภาค 1 [1080p] [พากย์ไทย 5.1 + เสียงอังกฤษ DTS] [บรรยายไทย + อังกฤษ] [เสียงไทย + ซับไทย] [OPENLOAD]

0

โหลดหนัง  American Pie (1999) อเมริกันพาย แอ้มสาวให้ได้ก่อนปลายเทอม ภาค 1

เรื่องย่อ American Pie (1999) อเมริกันพาย แอ้มสาวให้ได้ก่อนปลายเทอม ภาค 1

ความน่ารักของกลุ่มวัยรุ่นอเมริกัน ในช่วงหัวเลี้ยวหัวต่อของการเติบโตเป็นผู้ใหญ่ที่เต็ มไปด้วยความสนุกสนาน ทั้งด้านชีวิต ความรัก และ.ประสบการอ๊ะจึ๋ย!?! จิม.(เจสัน บิ๊กส์).เป็นอีกหนึ่งหนุ่มที่ยังบริสุทธิ์ แผนแอ้มนักเรียนสาวต่างชาตินามนาเดีย.(แชนน่อน อลิซาเบ็ธ).ก็ไม่ได้เรื่อง ดังนั้น ความหวังสุดท้ายของเขาจึงพุ่งเป้ามาที่มิเชลล์.(อลิส ัน แฮนนิแกน).นักดนตรีวงดุริยางค์แต่แล้วจิมก็ตระหนักได ้ว่า ทุกสิ่งทุกอย่างที่เขาอยากรู้เกี่ยวกับเซ็กซ์นั้น เขาต้องเริ่มต้นที่พายแอปเปิ้ล! ทางด้านเควิน.(โธมัส เอียน นิโคลัส).ก็ไม่ต้องการอะไรมากไปกว่าการเอาใจวิกกี้.( ทาร่า รี้ด).แฟนสาวของเขานี่เอง ที่ทำให้เควินได้พบคัมภีร์สยบอารมณ์หญิงส่วนอ๊อซ.(คร ิส ไคลน์).นักกีฬาหนุ่มหล่อก็พุ่งความสนใจไปที่อีเธอร์. (มีน่า ซูวารี่).นักร้องประสานเสียงคนสวย แต่การเอาชนะใจเธอช่างเป็นเรื่องยากเย็นเสียเหลือเกิ น ผลงานสุดฮิตจากการสร้างของ พอล ไวทซ์ และ.คริส ไวทซ์ สองพื่น้องคู่ใหม่ที่สร้างความกระหึ่มให้แก่วงการ ขนนักแสดงวัยรุ่นมากมายมามอบความจี๊ดจ๊าดให้แก่หัวใจ คุณ

Complete name : [MINI Super-HQ]_1.American.Pie.Unrated.1999.1080p.BrRip.DTS.x264.One2loadup.com.mkv
Format : Matroska
Format version : Version 4
File size : 3.92 GiB
Duration : 1 h 35 min
Overall bit rate mode : Variable
Overall bit rate : 5 872 kb/s
Movie name : [MINI Super-HQ]_1.American.Pie.Unrated.1999.1080p.BrRip.DTS.x264.One2loadup.com
Encoded date : UTC 2015-03-21 20:17:46
Writing application : mkvmerge v7.7.0 (‘Six Voices’) 64bit built on Feb 28 2015 23:39:33
Writing library : libebml v1.3.1 + libmatroska v1.4.2

Video
ID : 1
Format : AVC
Format/Info : Advanced Video Codec
Format profile : [email protected]
Format settings : CABAC / 4 Ref Frames
Format settings, CABAC : Yes
Format settings, ReFrames : 4 frames
Codec ID : V_MPEG4/ISO/AVC
Duration : 1 h 35 min
Bit rate mode : Variable
Bit rate : 4 500 kb/s
Maximum bit rate : 100.0 Mb/s
Width : 1 920 pixels
Height : 1 040 pixels
Display aspect ratio : 1.85:1
Frame rate mode : Constant
Frame rate : 23.976 (24000/1001) FPS
Color space : YUV
Chroma subsampling : 4:2:0
Bit depth : 8 bits
Scan type : Progressive
Bits/(Pixel*Frame) : 0.094
Stream size : 3.04 GiB (78%)
Title : [MINI Super-HQ]_1.American.Pie.Unrated.1999.1080p.BrRip.DTS.x264.One2loadup.com
Writing library : x264 core 120 r2145M 748fe16
Encoding settings : cabac=1 / ref=4 / deblock=1:0:0 / analyse=0x3:0x133 / me=umh / subme=11 / psy=1 / psy_rd=1.00:0.15 / mixed_ref=1 / me_range=64 / chroma_me=1 / trellis=2 / 8x8dct=1 / cqm=0 / deadzone=21,11 / fast_pskip=1 / chroma_qp_offset=-3 / threads=8 / sliced_threads=0 / nr=0 / decimate=1 / interlaced=0 / bluray_compat=0 / constrained_intra=0 / bframes=4 / b_pyramid=2 / b_adapt=2 / b_bias=0 / direct=3 / weightb=1 / open_gop=0 / weightp=2 / keyint=230 / keyint_min=23 / scenecut=40 / intra_refresh=0 / rc_lookahead=120 / rc=2pass / mbtree=1 / bitrate=4500 / ratetol=1.0 / qcomp=0.60 / qpmin=0 / qpmax=69 / qpstep=4 / cplxblur=20.0 / qblur=0.5 / vbv_maxrate=99999 / vbv_bufsize=99999 / nal_hrd=vbr / ip_ratio=1.40 / aq=1:1.00
Language : English
Default : Yes
Forced : No

Audio #1
ID : 2
Format : DTS
Format/Info : Digital Theater Systems
Codec ID : A_DTS
Duration : 1 h 35 min
Bit rate mode : Constant
Bit rate : 755 kb/s
Channel(s) : 6 channels
Channel layout : C L R Ls Rs LFE
Sampling rate : 48.0 kHz
Frame rate : 93.750 FPS (512 SPF)
Bit depth : 24 bits
Compression mode : Lossy
Stream size : 516 MiB (13%)
Title : ENG DTS
Language : English
Default : No
Forced : No

Audio #2
ID : 3
Format : AC-3
Format/Info : Audio Coding 3
Commercial name : Dolby Digital
Codec ID : A_AC3
Duration : 1 h 35 min
Bit rate mode : Constant
Bit rate : 448 kb/s
Channel(s) : 6 channels
Channel layout : L R C LFE Ls Rs
Sampling rate : 48.0 kHz
Frame rate : 31.250 FPS (1536 SPF)
Bit depth : 16 bits
Compression mode : Lossy
Stream size : 306 MiB (8%)
Title : [THAI AC3 FROM DVD MASTER]
Language : Thai
Service kind : Complete Main
Default : Yes
Forced : No

Text #1
ID : 4
Format : VobSub
Codec ID : S_VOBSUB
Codec ID/Info : Picture based subtitle format used on DVDs
Title : [SUB THAI 480P FROM DVD MASTER]
Language : Thai
Default : No
Forced : No

Text #2
ID : 5
Format : VobSub
Codec ID : S_VOBSUB
Codec ID/Info : Picture based subtitle format used on DVDs
Title : [SUB THAI 1080P FROM DVD MASTER] TH Angsana UPC
Language : Thai
Default : No
Forced : No

Text #3
ID : 6
Format : VobSub
Codec ID : S_VOBSUB
Codec ID/Info : Picture based subtitle format used on DVDs
Title : [SUB THAI 1080P FROM DVD MASTER] TH Sarabun
Language : Thai
Default : Yes
Forced : No

Text #4
ID : 7
Format : PGS
Codec ID : S_HDMV/PGS
Codec ID/Info : Picture based subtitle format used on BDs/HD-DVDs
Title : THAI PGS Angsana UPC
Language : Thai
Default : No
Forced : No

Text #5
ID : 8
Format : PGS
Codec ID : S_HDMV/PGS
Codec ID/Info : Picture based subtitle format used on BDs/HD-DVDs
Title : THAI PGS TH Sarabun
Language : Thai
Default : No
Forced : No

Text #6
ID : 9
Format : PGS
Codec ID : S_HDMV/PGS
Codec ID/Info : Picture based subtitle format used on BDs/HD-DVDs
Title : [SUB ENG PGS FROM BLU-RAY]
Language : English
Default : No
Forced : No

DOWNLOAD


PART01 |||| PART02 |||| PART03 |||| PART04

PART01 |||| PART02 |||| PART03 |||| PART04

PART01 |||| PART02 |||| PART03 |||| PART04

PART01 |||| PART02 |||| PART03 |||| PART04


Leave A Reply

Your email address will not be published.

%d bloggers like this: