โหลดหนัง HD MINI-HD SUPER-HQ Full-HD 1080p VIP Master Zoom ซูม หนังใหม่ ออนไลน์ มาสเตอร์ ไทย จีน ฝรั่ง การ์ตูน

[MINI Super-HQ] Abraham Lincoln Vampire Hunter (2012) ประธานาธิบดี ลินคอล์น นักล่าแวมไพร์ [1080p] [พากย์ไทย 5.1 + เสียงอังกฤษ DTS] [บรรยายไทย + อังกฤษ] [เสียงไทย + ซับไทย] [OPENLOAD]

Abraham Lincoln Vampire Hunter (2012) ประธานาธิบดี ลินคอล์น นักล่าแวมไพร์

โหลดหนัง Abraham Lincoln Vampire Hunter (2012) ประธานาธิบดี ลินคอล์น นักล่าแวมไพร์

เรื่องย่อ Abraham Lincoln Vampire Hunter (2012) ประธานาธิบดี ลินคอล์น นักล่าแวมไพร์

ภาพยนตร์จะเริ่มเรื่องตั้งแต่เมื่อ ลินคอล์น อายุได้เพียง 11 ปี เมื่อเขาได้รับทราบถึงการมีอยู่ของเผ่าพันธุ์แวมไพร์จาก โธมัส ลินคอล์น ผู้เป็นบิดาที่เล่าถึงประวัติศาสตร์ของตระกูลซึ่งเกี่ยวข้องกับเผ่าพันธุ์กระหายเลือดนี้ เมื่อผู้ปู่ของเขา (ชื่อว่า อับราฮัม ลินคอล์น เช่นเดียวกัน) ถูกแวมไพร์สังหารเมื่อปี 1786 ขณะที่มารดาของเขา แนนซี แฮคส์ ลินคอล์น ก็ตกเป็นเหยื่อของพวกมันเช่นเดียวกันจน ลินคอล์น ได้สาบานว่าเขาจะไล่ล่า แวมไพร์ เพื่อแก้แค้นแทนมารดาและทำลายแผนการจับคนมาเป็นอาหารของพวกมันให้จนได้ โดยเขาได้บันทึกเรื่องราวต่าง ๆ ไว้ในไดอารี่ส่วนตัวที่ไม่เคยเปิดเผยที่ไหนมาก่อนด้วย

Complete name : [MINI Super-HQ]_Abraham.Lincoln.Vampire.Hunter.2012.1080p.BrRip.DTS.x264.One2loadup.com.mkv
Format : Matroska
Format version : Version 2
File size : 3.53 GiB
Duration : 1 h 45 min
Overall bit rate : 4 806 kb/s
Movie name : [MINI Super-HQ]_Abraham.Lincoln.Vampire.Hunter.2012.1080p.BrRip.DTS.x264.One2loadup.com
Encoded date : UTC 2017-12-07 07:07:55 / UTC 2016-11-06T08:11:15Z
Writing application : mkvmerge v5.7.0 (‘The Whirlwind’) built on Jul 8 2012 20:08:51
Writing library : libebml v1.2.3 + libmatroska v1.3.0 / Lavf55.12.0

Video
ID : 1
Format : AVC
Format/Info : Advanced Video Codec
Format profile : [email protected]
Format settings : CABAC / 4 Ref Frames
Format settings, CABAC : Yes
Format settings, ReFrames : 4 frames
Muxing mode : Header stripping
Codec ID : V_MPEG4/ISO/AVC
Duration : 1 h 45 min
Bit rate : 2 837 kb/s
Width : 1 920 pixels
Height : 800 pixels
Display aspect ratio : 2.40:1
Frame rate mode : Constant
Frame rate : 23.976 (24000/1001) FPS
Color space : YUV
Chroma subsampling : 4:2:0
Bit depth : 8 bits
Scan type : Progressive
Bits/(Pixel*Frame) : 0.077
Stream size : 2.08 GiB (59%)
Title : [MINI Super-HQ]_Abraham.Lincoln.Vampire.Hunter.2012.1080p.BrRip.DTS.x264.One2loadup.com
Writing library : x264 core 142 r2479 dd79a61
Encoding settings : cabac=1 / ref=1 / deblock=1:0:0 / analyse=0x1:0x111 / me=hex / subme=2 / psy=1 / psy_rd=1.00:0.00 / mixed_ref=0 / me_range=16 / chroma_me=1 / trellis=0 / 8x8dct=0 / cqm=0 / deadzone=21,11 / fast_pskip=1 / chroma_qp_offset=0 / threads=6 / lookahead_threads=2 / sliced_threads=0 / nr=0 / decimate=1 / interlaced=0 / bluray_compat=0 / constrained_intra=0 / bframes=3 / b_pyramid=2 / b_adapt=1 / b_bias=0 / direct=1 / weightb=1 / open_gop=0 / weightp=1 / keyint=240 / keyint_min=24 / scenecut=40 / intra_refresh=0 / rc_lookahead=10 / rc=crf / mbtree=1 / crf=23.0 / qcomp=0.60 / qpmin=0 / qpmax=69 / qpstep=4 / vbv_maxrate=20000 / vbv_bufsize=25000 / crf_max=0.0 / nal_hrd=none / filler=0 / ip_ratio=1.40 / aq=1:1.00
Language : English
Default : Yes
Forced : Yes
Color range : Limited
Color primaries : BT.709
Transfer characteristics : BT.709
Matrix coefficients : BT.709

Audio #1
ID : 2
Format : AC-3
Format/Info : Audio Coding 3
Commercial name : Dolby Digital
Muxing mode : Header stripping
Codec ID : A_AC3
Duration : 1 h 45 min
Bit rate mode : Constant
Bit rate : 448 kb/s
Channel(s) : 6 channels
Channel layout : L R C LFE Ls Rs
Sampling rate : 48.0 kHz
Frame rate : 31.250 FPS (1536 SPF)
Bit depth : 16 bits
Compression mode : Lossy
Stream size : 336 MiB (9%)
Title : Thai Surround 5.1
Language : Thai
Service kind : Complete Main
Default : Yes
Forced : Yes

Audio #2
ID : 3
Format : DTS
Format/Info : Digital Theater Systems
Muxing mode : Header stripping
Codec ID : A_DTS
Duration : 1 h 45 min
Bit rate mode : Constant
Bit rate : 1 509 kb/s
Channel(s) : 6 channels
Channel layout : C L R Ls Rs LFE
Sampling rate : 48.0 kHz
Frame rate : 93.750 FPS (512 SPF)
Bit depth : 24 bits
Compression mode : Lossy
Stream size : 1.11 GiB (31%)
Title : English DTS Surround 1 509 Kbps
Language : English
Default : No
Forced : No

Text #1
ID : 4
Format : PGS
Muxing mode : zlib
Codec ID : S_HDMV/PGS
Codec ID/Info : Picture based subtitle format used on BDs/HD-DVDs
Duration : 1 h 44 min
Bit rate : 7 560 b/s
Count of elements : 2005
Stream size : 5.63 MiB (0%)
Title : English PGS
Language : English
Default : No
Forced : No

Text #2
ID : 5
Format : PGS
Muxing mode : zlib
Codec ID : S_HDMV/PGS
Codec ID/Info : Picture based subtitle format used on BDs/HD-DVDs
Duration : 1 h 44 min
Bit rate : 5 918 b/s
Count of elements : 2038
Stream size : 4.42 MiB (0%)
Title : Thai PGS
Language : Thai
Default : Yes
Forced : Yes

Menu
00:00:00.000 : :Chapter 1
00:04:59.608 : :Chapter 2
00:09:59.449 : :Chapter 3
00:14:59.708 : :Chapter 4
00:20:00.049 : :Chapter 5
00:24:59.974 : :Chapter 6
00:29:59.815 : :Chapter 7
00:35:00.073 : :Chapter 8
00:39:59.331 : :Chapter 9
00:44:59.506 : :Chapter 10
00:49:59.514 : :Chapter 11
00:54:59.563 : :Chapter 12
00:59:59.738 : :Chapter 13
01:04:59.371 : :Chapter 14
01:09:59.838 : :Chapter 15
01:15:00.013 : :Chapter 16
01:19:59.854 : :Chapter 17
01:24:59.153 : :Chapter 18
01:29:59.661 : :Chapter 19
01:34:59.377 : :Chapter 20
01:39:59.552 : :Chapter 21

DOWNLOAD


PART01 |||| PART02 |||| PART03 |||| PART04

PART01 |||| PART02 |||| PART03 |||| PART04

PART01 |||| PART02 |||| PART03 |||| PART04

PART01 |||| PART02 |||| PART03 |||| PART04


Leave A Reply

Your email address will not be published.

%d bloggers like this: