[MINI-HQ] The Black Death (2015) ผีห่าอโยธยา [1080p] [พากย์ไทย 5.1] [หนังไทย] [เสียงไทยมาสเตอร์] [ONE2UP]

0

โหลดหนัง  The Black Death (2015) ผีห่าอโยธยา

เรื่องย่อ The Black Death (2015) ผีห่าอโยธยา

ปีพุทธศักราช 2108 ท่ามกลางมหาศึกระหว่างอโยธยาและหงสา ยังมีคำบอกเล่าถึงโรคาพิบัติภัยครั้งใหญ่ที่ประวัติศาสตร์มิได้จารึกไว้นั่นคืออุบัติแห่ง “ผีห่า” หายนะอาเพศที่ทำให้ศพที่เสียชีวิตจากโรคห่า กลับฟื้นชีวิตขึ้นใหม่อีกครั้งในคราบของอสูรร้ายที่ไล่ล่ากันกินผู้คนเพื่อแพร่เชื้อร้ายให้มนุษย์กลับกลายมาเป็นพวกของมัน โดยที่ไม่มียาใดจะรักษาได้ ทางเดียวที่จะหยุดมันได้คือการฟันที่หัวของมันให้ขาดออกจากร่างเท่านั้น สัมผัสกับความมันส์แบบสยองขวัญ ในภาพยนตร์แอ็คชั่นสยองขวัญเลือดสาดย้อนยุค PERIOD -SURVIVAL ACTION-HORROR จากผลงานเขียนบท-กำกับภาพยนตร์ โดย ม.ร.ว. เฉลิมชาตรี ยุคล ร่วมด้วย เต้ย-พงศกร เมตตาริกานนท์,แคท-ซอนญ่า สิงหะ,แม็กกี้- อาภา ภาวิไล,แต๊บ-เอเอฟ ธนพล มหธร,โซดา-วีรี ละดาพันธ์,คาน-คานธี วสุวิชย์กิต,หนึ่ง-ชลัฎ ณ สงขลา,ชาติ อรรถจินดา, แนน-ปรางค์วลัย วงศ์สว่างวงศ์!!

Complete name : [MINI-HQ]_The.Black.Death.2015.1080p.BluRay.THM.x264.One2loadup.com.mkv
Format : Matroska
Format version : Version 4
File size : 3.68 GiB
Duration : 1 h 24 min
Overall bit rate : 6 232 kb/s
Movie name : [MINI Super-HD]_The.Black.Death.2015.1080p.BluRay.THM.x264.One2loadup.com
Encoded date : UTC 2017-10-28 13:39:05
Writing application : mkvmerge v15.0.0 (‘Duel with the Devil’) 64-bit
Writing library : libebml v1.3.5 + libmatroska v1.4.5

Video
ID : 1
Format : AVC
Format/Info : Advanced Video Codec
Format profile : [email protected]
Format settings : CABAC / 1 Ref Frames
Format settings, CABAC : Yes
Format settings, ReFrames : 1 frame
Format settings, GOP : M=1, N=12
Codec ID : V_MPEG4/ISO/AVC
Duration : 1 h 24 min
Bit rate : 5 583 kb/s
Width : 1 920 pixels
Height : 1 080 pixels
Display aspect ratio : 16:9
Frame rate mode : Constant
Frame rate : 24.000 FPS
Color space : RGB
Chroma subsampling : 4:2:0
Bit depth : 8 bits
Scan type : Progressive
Bits/(Pixel*Frame) : 0.112
Stream size : 3.30 GiB (90%)
Title : [MINI Super-HD]_The.Black.Death.2015.1080p.BluRay.THM.x264.One2loadup.com
Default : Yes
Forced : No
Color range : Limited
Matrix coefficients : Identity

Audio
ID : 2
Format : AC-3
Format/Info : Audio Coding 3
Commercial name : Dolby Digital
Codec ID : A_AC3
Duration : 1 h 24 min
Bit rate mode : Constant
Bit rate : 640 kb/s
Channel(s) : 6 channels
Channel layout : L R C LFE Ls Rs
Sampling rate : 48.0 kHz
Frame rate : 31.250 FPS (1536 SPF)
Bit depth : 16 bits
Compression mode : Lossy
Delay relative to video : 2 s 0 ms
Stream size : 387 MiB (10%)
Title : Thai AC-3 5.1 From BluRay
Language : Thai
Service kind : Complete Main
Default : Yes
Forced : Yes

 

DOWNLOAD


PART01 |||| PART02 |||| PART03 |||| PART04

PART01 |||| PART02 |||| PART03 |||| PART04

PART01 |||| PART02 |||| PART03 |||| PART04

PART01 |||| PART02 |||| PART03 |||| PART04


Leave A Reply

Your email address will not be published.

%d bloggers like this: