[MINI-HD] Viral (2018) ผีโทรศัพท์ [720p] [พากย์ไทย 5.1] [DVDRip] [หนังไทย] [เสียงไทยมาสเตอร์] [ONE2UP]

0

โหลดหนัง  Viral (2018) ผีโทรศัพท์

Phee Toh Ra Sap (2018) Horror | 8 November 2018 (Thailand) Summary: Add a Plot »
Countries: ThailandLanguages: Thai

เรื่องย่อ Viral (2018) ผีโทรศัพท์

ภาพยนตร์ไทยสยองขวัญเรื่องล่าสุดของผู้กำกับหญิง มนัสนันท์ พงษ์สุวรรณ เล่าเรื่องราวของแก๊งเพื่อนซี้ แตง (พลอย ศรนรินทร์), คิตตี้ (จ๋า สุธีธิดา), ไตเติ้ล (อ๋อง ธนา) พร้อมด้วย วิทย์ (เบสท์ ณัฐสิทธิ์) แฟนหนุ่มของคิตตี้ ที่แม้จะมีฐานะแตกต่างกัน แต่พวกเขาต่างก็เติบโตและใช้ชีวิตร่วมกันมาตั้งแต่เด็กและเมื่อวันหนึ่งสถานที่ที่พวกเขาผูกพันกำลังจะถูกรื้อทำลาย ทั้งหมดจึงนัดกันไปรำลึกความหลังกันเป็นครั้งสุดท้ายแต่แล้วความทรงจำที่พวกเขาหวังจะได้เก็บมันไว้เป็นที่ระลึก กลับแทนที่ด้วยความหลอนระทึกที่ยากจะลบมันทิ้งไปจากชีวิตเมื่อการรวมตัวกันเล่น เกมผีออนไลน์ (Ghost Hunt) ของพวกเขาบังเอิญทำให้แตงถ่าย ภาพติดผี ได้ที่ตึกร้างแห่งนั้น เธอและคิตตี้จึงรีบส่งต่อให้เพื่อนคนอื่น ๆ
ด้วยความท้าทายและคึกคะนองในการแกล้งเพื่อนที่กลัวผี โดยไม่รู้เลยว่าความสยองที่ถูกแพร่กระจายไปในมือถือนั้นอาจจะเล่นงานพวกเขาและคนรอบข้างจนถึงตายได้สุดท้ายแล้ว แตงและคิตตี้จึงต้องรีบคลี่คลายปัญหาทุกอย่างให้เร็วที่สุดทั้งความสัมพันธ์ส่วนตัวและความสยองส่วนรวม ก่อนที่ ผีโทรศัพท์ นี้จะย้อนกลับมาทำลายชีวิตพวกเธอ!!!

Complete name : [MINI-HD]_Viral.2018.720p.DVDRip.AC3.One2loadup.com.mkv
Format : Matroska
Format version : Version 2
File size : 3.72 GiB
Duration : 1 h 16 min
Overall bit rate mode : Variable
Overall bit rate : 6 924 kb/s
Movie name : [MINI-HD]_Viral.2018.720p.DVDRip.AC3.One2loadup.com
Encoded date : UTC 2019-04-04 20:17:11
Writing library : libmakemkv v1.14.3 (1.3.5/1.4.7) win(x64-release)

Video
ID : 1
ID in the original source m : 224 (0xE0)
Format : MPEG Video
Format version : Version 2
Format profile : [email protected]
Format settings : CustomMatrix / BVOP
Format settings, BVOP : Yes
Format settings, Matrix : Custom
Format settings, GOP : M=3, N=15
Codec ID : V_MPEG2
Codec ID/Info : MPEG 1 or 2 Video
Duration : 1 h 16 min
Bit rate mode : Variable
Bit rate : 6 471 kb/s
Maximum bit rate : 9 300 kb/s
Width : 720 pixels
Height : 576 pixels
Display aspect ratio : 16:9
Frame rate mode : Constant
Frame rate : 25.000 FPS
Standard : PAL
Color space : YUV
Chroma subsampling : 4:2:0
Bit depth : 8 bits
Scan type : Progressive
Compression mode : Lossy
Bits/(Pixel*Frame) : 0.624
Time code of first frame : 00:00:00:00
Time code source : Group of pictures header
GOP, Open/Closed : Open
GOP, Open/Closed of first f : Closed
Stream size : 3.48 GiB (93%)
Title : [MINI-HD]_Viral.2018.720p.DVDRip.AC3.One2loadup.com
Writing library : TMPGEnc Video Mastering Works 6 Version. 6.2.10.37
Language : English
Default : No
Forced : No
Color primaries : BT.601 PAL
Transfer characteristics : BT.470 System B/G
Matrix coefficients : BT.470 System B/G

Audio
ID : 2
Format : AC-3
Format/Info : Audio Coding 3
Commercial name : Dolby Digital
Codec ID : A_AC3
Duration : 1 h 16 min
Bit rate mode : Constant
Bit rate : 448 kb/s
Channel(s) : 6 channels
Channel layout : L R C LFE Ls Rs
Sampling rate : 48.0 kHz
Frame rate : 31.250 FPS (1536 SPF)
Bit depth : 16 bits
Compression mode : Lossy
Stream size : 247 MiB (6%)
Title : Surround 5.1
Language : Thai
Service kind : Complete Main
Default : Yes
Forced : No

Menu
00:00:00.000 : en:Chapter 02
00:05:31.800 : en:Chapter 03
00:11:03.040 : en:Chapter 04
00:16:28.840 : en:Chapter 05
00:22:45.880 : en:Chapter 06
00:29:39.160 : en:Chapter 07
00:36:01.760 : en:Chapter 08
00:42:44.760 : en:Chapter 09
00:50:13.720 : en:Chapter 10
00:57:12.120 : en:Chapter 11
01:03:35.080 : en:Chapter 12
01:09:38.280 : en:Chapter 13

DOWNLOAD


PART01 |||| PART02 |||| PART03 |||| PART04

PART01 |||| PART02 |||| PART03 |||| PART04

PART01 |||| PART02 |||| PART03 |||| PART04

PART01 |||| PART02 |||| PART03 |||| PART04


Leave A Reply

Your email address will not be published.

%d bloggers like this: