เว็บโหลดหนัง HD MINI-HD SUPER-HQ Full-HD 1080p One2up VIP Master Zoom ซูม หนังใหม่ ออนไลน์ มาสเตอร์ ไทย จีน ฝรั่ง การ์ตูน

[MINI-HD] Toy Story 2 (1999) ทอย สตอรี่ ภาค 2 [720p] [พากย์ไทย 5.1 + อังกฤษ 5.1] [บรรยายไทย + อังกฤษ] [เสียงไทย + ซับไทย] [ONE2UP]

0

โหลดหนัง  Toy Story 2 (1999) ทอย สตอรี่ ภาค 2

เรื่องย่อ Toy Story 2 (1999) ทอย สตอรี่ ภาค 2

ของเล่นก็คือของเล่น เว้นแต่ว่าเจ้าของจะไม่อยู่แถวนั้น บัดนี้ แก๊งจอมป่วนจากห้องของแอนดี้ได้กลับมาป่วนจออีกครั้ง พร้อมตะลุยจอกันอีกหนใน Toy Story 2 ภาคต่อสุดระทึก ชวนให้นึกถึงเรื่องราวจี้เส้นของบรรดาของเล่นเมื่อหลายปีก่อน จากภาพยนตร์คอมพิวเตอร์อนิเมชันยอดฮิตที่ออกฉายปี 1995 จาก Disney และ Pixar บัซ ไลต์เยียร์ วูดี้ และบรรดาของเล่นหลากสีสันจะมาร่วมสร้างความหฤหรรษ์ ร่วมกับของเล่นตัวใหม่ๆ ให้กับการผจญภัยที่เต็มเปี่ยมไปด้วยความสนุกสนานเฮฮา และแอ็คชันมันหยดอย่างคาดไม่ถึง อัดแน่นด้วยเสียงหัวเราะ เต็มตื้นด้วยอารมณ์ซึ้ง และพบกับความประหลาดใจอย่างยิ่งยวด
ทอม แฮงก์ ทิม อัลเลน และผู้มีอัจฉริยภาพทางด้านเสียงอีกหลายคนจากภาคแรก จะกลับมาร่วมให้เสียงในตัวละครเดิมอีกครั้ง จัดทำคอมพิวเตอร์อนิเมชันในรูปแบบใหม่ และใช้เทคโนโลยีอันล้ำยุค ในการบอกเล่าเรื่องราวมหัศจรรย์ และสรรสร้างโลกแห่งจินตนาการให้บรรเจิดยิ่งขึ้น

Complete name : [MINI-HD]_Toy.2.1999.720p.HQ.AC3.x264.One2loadup.com.mkv
Format : Matroska
Format version : Version 2
File size : 3.49 GiB
Duration : 1 h 32 min
Overall bit rate mode : Variable
Overall bit rate : 5 378 kb/s
Encoded date : UTC 2012-11-22 04:52:36
Writing application : mkvmerge v3.4.0 (‘Rapunzel’) built on May 15 2010 09:38:20
Writing library : libebml v0.8.0 + libmatroska v0.9.0

Video
ID : 1
Format : AVC
Format/Info : Advanced Video Codec
Format profile : [email protected]
Format settings, CABAC : Yes
Format settings, RefFrames : 6 frames
Codec ID : V_MPEG4/ISO/AVC
Duration : 1 h 32 min
Bit rate mode : Variable
Bit rate : 4 280 kb/s
Maximum bit rate : 300 Mb/s
Width : 1 280 pixels
Height : 720 pixels
Display aspect ratio : 16:9
Frame rate mode : Constant
Frame rate : 23.976 (24000/1001) FPS
Original frame rate : 23.976 (23976/1000) FPS
Color space : YUV
Chroma subsampling : 4:2:0
Bit depth : 8 bits
Scan type : Progressive
Bits/(Pixel*Frame) : 0.194
Stream size : 2.72 GiB (78%)
Writing library : x264 core 125 r2200 999b753
Encoding settings : cabac=1 / ref=6 / deblock=1:0:0 / analyse=0x3:0x133 / me=umh / subme=10 / psy=1 / psy_rd=1.00:0.00 / mixed_ref=1 / me_range=24 / chroma_me=1 / trellis=2 / 8x8dct=1 / cqm=0 / deadzone=21,11 / fast_pskip=1 / chroma_qp_offset=-2 / threads=6 / lookahead_threads=1 / sliced_threads=0 / nr=0 / decimate=1 / interlaced=0 / bluray_compat=0 / constrained_intra=0 / bframes=8 / b_pyramid=0 / b_adapt=2 / b_bias=0 / direct=3 / weightb=1 / open_gop=0 / weightp=2 / keyint=240 / keyint_min=24 / scenecut=40 / intra_refresh=0 / rc_lookahead=60 / rc=2pass / mbtree=1 / bitrate=4280 / ratetol=1.0 / qcomp=0.60 / qpmin=0 / qpmax=69 / qpstep=4 / cplxblur=20.0 / qblur=0.5 / vbv_maxrate=300000 / vbv_bufsize=300000 / nal_hrd=vbr / ip_ratio=1.40 / aq=1:1.00
Language : English
Default : Yes
Forced : No

Audio #1
ID : 2
Format : AC-3
Format/Info : Audio Coding 3
Format settings, Endianness : Big
Codec ID : A_AC3
Duration : 1 h 32 min
Bit rate mode : Constant
Bit rate : 640 kb/s
Channel(s) : 6 channels
Channel positions : Front: L C R, Side: L R, LFE
Sampling rate : 48.0 kHz
Frame rate : 31.250 FPS (1536 SPF)
Bit depth : 16 bits
Compression mode : Lossy
Stream size : 425 MiB (12%)
Title : Thai [Br-Master]
Language : Thai
Service kind : Complete Main
Default : Yes
Forced : No

Audio #2
ID : 3
Format : AC-3
Format/Info : Audio Coding 3
Format settings, Endianness : Big
Codec ID : A_AC3
Duration : 1 h 32 min
Bit rate mode : Constant
Bit rate : 448 kb/s
Channel(s) : 6 channels
Channel positions : Front: L C R, Side: L R, LFE
Sampling rate : 48.0 kHz
Frame rate : 31.250 FPS (1536 SPF)
Bit depth : 16 bits
Compression mode : Lossy
Stream size : 298 MiB (8%)
Title : Eng [Br-Master]
Language : English
Service kind : Complete Main
Default : No
Forced : No

Text #1
ID : 4
Format : VobSub
Muxing mode : zlib
Codec ID : S_VOBSUB
Codec ID/Info : Picture based subtitle format used on DVDs
Title : Thai 1080p [Br-Master]
Language : Thai
Default : Yes
Forced : No

Text #2
ID : 5
Format : VobSub
Muxing mode : zlib
Codec ID : S_VOBSUB
Codec ID/Info : Picture based subtitle format used on DVDs
Title : Eng 1080p [Br-Master]
Language : English
Default : No
Forced : No


PART01 |||| PART02 |||| PART03 |||| PART04

PART01 |||| PART02 |||| PART03 |||| PART04

PART01 |||| PART02 |||| PART03 |||| PART04

PART01 |||| PART02 |||| PART03 |||| PART04


Leave A Reply

Your email address will not be published.

%d bloggers like this: