[MINI-HD] Touchdown Kiss (2019) วัยร้าย คว้าใจ พิชิตฝัน [1080p] [พากย์ไทย 2.0] [หนังไทย] [ไม่มีบรรยาย] [เสียงไทย] [OPENLOAD]

0

Touchdown Kiss (2019) วัยร้าย คว้าใจ พิชิตฝัน

โหลดหนัง Touchdown Kiss (2019) วัยร้าย คว้าใจ พิชิตฝัน

เรื่องย่อ Touchdown Kiss (2019) วัยร้าย คว้าใจ พิชิตฝัน

เชอริล กัปตันเชียร์ลีดเดอร์ของโรงเรียนฮอว์กิ้นส์ ที่ถูกเพื่อนรักหักแย่งแฟน แถมยังใส่ร้ายจนทำให้เธอต้องย้ายไปยังโรงเรียนเกรย์เซ็นท์ ซานเดอร์ ไฮสคูล และได้พบกับเควนติน กัปตันบาสสุดหล่อ หัวโจกประจำโรงเรียน เชอริลใช้ความลับที่ควานตินทำงานเป็นนักเต้นเปลื้องผ้าในการแบล็คเมล์ แลกกับการที่เขาต้องยอมเป็นการ์ดปกป้องเธอจากพวกชอบหาเรื่อง จากคู่กัดจะพัฒนาเป็นคู่รักได้หรือไม่!!

Complete name : [MINI-HD]_Touchdown.Kiss.2019.1080p.WEB-DL.AC3.THM.One2loadup.com.mkv
Format : Matroska
Format version : Version 4
File size : 2.43 GiB
Duration : 1 h 53 min
Overall bit rate mode : Variable
Overall bit rate : 3 074 kb/s
Movie name : [MINI-HD]_Touchdown.Kiss.2019.1080p.WEB-DL.AC3.THM.One2loadup.com
Encoded date : UTC 2019-07-31 03:29:49
Writing application : mkvmerge v25.0.0 (‘Prog Noir’) 64-bit
Writing library : libebml v1.3.6 + libmatroska v1.4.9

Video
ID : 1
Format : AVC
Format/Info : Advanced Video Codec
Format profile : [email protected]
Format settings : CABAC / 4 Ref Frames
Format settings, CABAC : Yes
Format settings, ReFrames : 4 frames
Codec ID : V_MPEG4/ISO/AVC
Duration : 1 h 53 min
Bit rate mode : Variable
Bit rate : 2 881 kb/s
Maximum bit rate : 4 000 kb/s
Width : 1 920 pixels
Height : 1 080 pixels
Display aspect ratio : 16:9
Frame rate mode : Constant
Frame rate : 25.000 FPS
Standard : NTSC
Color space : YUV
Chroma subsampling : 4:2:0
Bit depth : 8 bits
Scan type : Progressive
Bits/(Pixel*Frame) : 0.056
Stream size : 2.28 GiB (94%)
Title : [MINI-HD]_Touchdown.Kiss.2019.1080p.WEB-DL.AC3.THM.One2loadup.com
Default : Yes
Forced : No
Color range : Limited

Audio
ID : 2
Format : AC-3
Format/Info : Audio Coding 3
Commercial name : Dolby Digital
Codec ID : A_AC3
Duration : 1 h 53 min
Bit rate mode : Constant
Bit rate : 192 kb/s
Channel(s) : 2 channels
Channel layout : L R
Sampling rate : 44.1 kHz
Frame rate : 28.711 FPS (1536 SPF)
Bit depth : 16 bits
Compression mode : Lossy
Delay relative to video : -80 ms
Stream size : 156 MiB (6%)
Title : Thai Master 2.0 From MONOMAX @192 Kbps
Language : Thai
Service kind : Complete Main
Default : Yes
Forced : No

DOWNLOAD


PART01 |||| PART02 |||| PART03

PART01 |||| PART02 |||| PART03

PART01 |||| PART02 |||| PART03

PART01 |||| PART02 |||| PART03


Leave A Reply

Your email address will not be published.

%d bloggers like this: