โหลดหนัง HD MINI-HD SUPER-HQ Full-HD 1080p VIP Master Zoom ซูม หนังใหม่ ออนไลน์ มาสเตอร์ ไทย จีน ฝรั่ง การ์ตูน

[MINI-HD] Tonight At Romance Theater (2018) รักเรา จะพบกัน [720p] [พากย์ไทย 5.1 + เสียงญี่ปุ่น DTS] [บรรยายไทย] [เสียงไทย + ซับไทย] [ONE2UP]

Tonight At Romance Theater (2018) รักเรา จะพบกัน

โหลดหนัง Tonight At Romance Theater (2018) รักเรา จะพบกัน 

เรื่องย่อ Tonight At Romance Theater (2018) รักเรา จะพบกัน

ภาพยนตร์โรแมนติกแฟนตาซี เรื่องราวของ เคนจิ ( เคนทาโร่ ซากาคุจิ ) หนุ่มนักฉายหนังที่มีความฝันจะเป็นผู้กำกับ เขาตกหลุมรักนางเอกในภาพยนตร์ขาวดำเรื่องโปรดเจ้าหญิงมิยูกิ ( ฮารุกะ อายาเสะ ) ทุก ๆ คืนหลังโรงหนังเลิกเขาจะฉายฟิล์มหนังเรื่องนี้ซ้ำไปมาทุกคืน แล้วเฝ้าฝันว่าเขาเป็นพระเอกในหนังเรื่องนั้นแล้วอยู่ ๆ ในคืนที่โรงหนังถูกฟ้าผ่า จนทำให้เครื่องฉายได้รับความเสียหาย เจ้าหญิงของเขาหลุดออกมาสู่โลกภาพยนตร์สู่โลกของความเป็นจริง แต่ร่างกายของเธอเป็นสีขาวดำ เคนจิ คอยดูแลเธออยู่ไม่ห่าง และจากหญิงสาวผู้ไม่สนใจใคร มิยูกิ ค่อย ๆ เรียนรู้ความรักและ ความสุขทุก ๆ ครั้งที่เธอมีความสุขร่างกายของเธอจะมีสีสันขึ้นทีละนิด แล้วโดยไม่รู้ตัวเธอกำลังตกหลุมรักเคนจิ หากแต่ความมหัศจรรย์นี้กลับมีเงื่อนไขตรงที่ว่า ถ้าหากเธอรักใคร แล้วถูกตัวคน ๆ นั้น เธอก็จะต้องหายไปแล้วกลับไปอยู่ในโลกของหนังขาวดำตลอดกาล แล้วพวกเขาทั้งคู่จะอยู่เคียงข้างกันได้ไหม ?

Complete name : [MINI-HD]_Tonight.at.Romance.Theater.2018.720p.BluRay.DTS.x264.One2loadup.com.mkv
Format : Matroska
Format version : Version 4
File size : 5.65 GiB
Duration : 1 h 48 min
Overall bit rate : 7 460 kb/s
Movie name : [MINI-HD]_Tonight.at.Romance.Theater.2018.720p.BluRay.DTS.x264.One2loadup.com
Encoded date : UTC 2018-08-25 15:24:01
Writing application : mkvmerge v17.0.0 (‘Be Ur Friend’) 64-bit
Writing library : libebml v1.3.5 + libmatroska v1.4.8

Video
ID : 1
Format : AVC
Format/Info : Advanced Video Codec
Format profile : [email protected]
Format settings : CABAC / 9 Ref Frames
Format settings, CABAC : Yes
Format settings, ReFrames : 9 frames
Codec ID : V_MPEG4/ISO/AVC
Duration : 1 h 48 min
Bit rate : 5 500 kb/s
Width : 1 280 pixels
Height : 690 pixels
Display aspect ratio : 1.85:1
Frame rate mode : Constant
Frame rate : 23.976 (24000/1001) FPS
Color space : YUV
Chroma subsampling : 4:2:0
Bit depth : 8 bits
Scan type : Progressive
Bits/(Pixel*Frame) : 0.260
Stream size : 4.17 GiB (74%)
Title : [MINI-HD]_Tonight.at.Romance.Theater.2018.720p.BluRay.DTS.x264.One2loadup.com
Writing library : x264 core 155 r2901 7d0ff22
Encoding settings : cabac=1 / ref=9 / deblock=1:-3:-3 / analyse=0x3:0x133 / me=umh / subme=10 / psy=1 / psy_rd=1.00:0.00 / mixed_ref=1 / me_range=32 / chroma_me=1 / trellis=2 / 8x8dct=1 / cqm=0 / deadzone=21,11 / fast_pskip=0 / chroma_qp_offset=-2 / threads=12 / lookahead_threads=1 / sliced_threads=0 / nr=0 / decimate=1 / interlaced=0 / bluray_compat=0 / constrained_intra=0 / bframes=6 / b_pyramid=2 / b_adapt=2 / b_bias=0 / direct=3 / weightb=1 / open_gop=0 / weightp=2 / keyint=230 / keyint_min=22 / scenecut=40 / intra_refresh=0 / rc_lookahead=60 / rc=2pass / mbtree=1 / bitrate=5500 / ratetol=1.0 / qcomp=0.60 / qpmin=0 / qpmax=69 / qpstep=4 / cplxblur=20.0 / qblur=0.5 / vbv_maxrate=50000 / vbv_bufsize=50000 / nal_hrd=none / filler=0 / ip_ratio=1.40 / aq=1:1.00
Default : Yes
Forced : No

Audio #1
ID : 2
Format : DTS
Format/Info : Digital Theater Systems
Codec ID : A_DTS
Duration : 1 h 48 min
Bit rate mode : Constant
Bit rate : 1 509 kb/s
Channel(s) : 6 channels
Channel layout : C L R Ls Rs LFE
Sampling rate : 48.0 kHz
Frame rate : 93.750 FPS (512 SPF)
Bit depth : 24 bits
Compression mode : Lossy
Stream size : 1.14 GiB (20%)
Language : Japanese
Default : Yes
Forced : No

Audio #2
ID : 3
Format : AC-3
Format/Info : Audio Coding 3
Commercial name : Dolby Digital
Codec ID : A_AC3
Duration : 1 h 48 min
Bit rate mode : Constant
Bit rate : 448 kb/s
Channel(s) : 6 channels
Channel layout : L R C LFE Ls Rs
Sampling rate : 48.0 kHz
Frame rate : 31.250 FPS (1536 SPF)
Bit depth : 16 bits
Compression mode : Lossy
Delay relative to video : 8 s 500 ms
Stream size : 347 MiB (6%)
Language : Thai
Service kind : Complete Main
Default : No
Forced : No

Text
ID : 4
Format : VobSub
Muxing mode : zlib
Codec ID : S_VOBSUB
Codec ID/Info : Picture based subtitle format used on DVDs
Duration : 1 h 40 min
Bit rate : 3 758 b/s
Count of elements : 1065
Stream size : 2.71 MiB (0%)
Language : Thai
Default : No
Forced : No

Menu
00:00:00.000 : en:00:00:00.000
00:05:46.763 : en:00:05:46.763
00:07:53.973 : en:00:07:53.973
00:12:36.798 : en:00:12:36.798
00:19:12.109 : en:00:19:12.109
00:25:16.140 : en:00:25:16.140
00:32:23.066 : en:00:32:23.066
00:34:24.312 : en:00:34:24.312
00:41:30.196 : en:00:41:30.196
00:51:34.675 : en:00:51:34.675
00:54:20.924 : en:00:54:20.924
01:01:38.445 : en:01:01:38.445
01:07:39.055 : en:01:07:39.055
01:12:46.821 : en:01:12:46.821
01:16:25.706 : en:01:16:25.706
01:26:45.033 : en:01:26:45.033
01:34:42.385 : en:01:34:42.385
01:40:53.881 : en:01:40:53.881
01:44:17.251 : en:01:44:17.251

DOWNLOAD


PART01 |||| PART02 |||| PART03 |||| PART04 |||| PART05 |||| PART06

PART01 |||| PART02 |||| PART03 |||| PART04 |||| PART05 |||| PART06

PART01 |||| PART02 |||| PART03 |||| PART04 |||| PART05 |||| PART06

PART01 |||| PART02 |||| PART03 |||| PART04 |||| PART05 |||| PART06


Leave A Reply

Your email address will not be published.

%d bloggers like this: