[MINI-HD] Tinker Bell And The Pirate Fairy (2014) ทิงเกอร์เบลล์กับนางฟ้าโจรสลัด ภาค 6 [1080p] [พากย์ไทย 2.0 + เสียงอังกฤษ 5.1] [บรรยายไทย + อังกฤษ] [เสียงไทย + ซับไทย] [ONE2UP]

0

Tinker Bell And The Pirate Fairy (2014) ทิงเกอร์เบลล์กับนางฟ้าโจรสลัด ภาค 6

โหลดหนัง Tinker Bell And The Pirate Fairy (2014) ทิงเกอร์เบลล์กับนางฟ้าโจรสลัด ภาค 6

The Pirate Fairy (2014) 1h 18min | Animation, Adventure, Family | Video 16 April 2014 Summary: When Zarina steals Pixie Hollow's Blue Pixie Dust and flies away, Tinker Bell and her friends sets on a journey to get them back.
Countries: USALanguages: English

เรื่องย่อ Tinker Bell And The Pirate Fairy (2014) ทิงเกอร์เบลล์กับนางฟ้าโจรสลัด ภาค 6

ซารีน่า ผู้คอยดูแลปกป้องละอองนางฟ้าประจำ Pixie Hollow เกิดทำความผิดพลาดครั้งใหญ่ ขโมยละอองนางฟ้าเหล่านี้ไปให้กับกลุ่มโจรสลัด Skull Rock สร้างความปั่นป่วนจนความสามารถเฉพาะตัวของ นางฟ้าแต่ละคนสลับกันมั่วไปหมด Tinker Bell และเพื่อน ๆ ของเธอจึงต้องเดินทางไปเอาละอองนางฟ้ากลับคืนมาเพื่อ ปกป้อง Pixie Hollow เอาไว้

Complete name : [MINI-HD]_6.Tinker.Bell.And.The.Pirate.Fairy.2014.1080p.BluRay.AC3.x264.One2loadup.com.mkv
Format : Matroska
Format version : Version 4
File size : 2.21 GiB
Duration : 1 h 18 min
Overall bit rate : 4 052 kb/s
Movie name : [MINI-HD]_6.Tinker.Bell.And.The.Pirate.Fairy.2014.1080p.BluRay.AC3.x264.One2loadup.com
Encoded date : UTC 2015-01-20 12:54:01
Writing application : mkvmerge v7.2.0 (‘On Every Street’) 64bit built on Sep 13 2014 15:52:10
Writing library : libebml v1.3.0 + libmatroska v1.4.1
Cover : Yes
Attachments : cover.png / small_cover.png / cover_land.png / small_cover_land.png

Video
ID : 1
Format : AVC
Format/Info : Advanced Video Codec
Format profile : [email protected]
Format settings : CABAC / 4 Ref Frames
Format settings, CABAC : Yes
Format settings, ReFrames : 4 frames
Codec ID : V_MPEG4/ISO/AVC
Duration : 1 h 18 min
Bit rate : 3 350 kb/s
Width : 1 920 pixels
Height : 1 080 pixels
Display aspect ratio : 16:9
Frame rate mode : Constant
Frame rate : 23.976 (24000/1001) FPS
Color space : YUV
Chroma subsampling : 4:2:0
Bit depth : 8 bits
Scan type : Progressive
Bits/(Pixel*Frame) : 0.067
Stream size : 1.83 GiB (83%)
Title : [MINI-HD]_6.Tinker.Bell.And.The.Pirate.Fairy.2014.1080p.BluRay.AC3.x264.One2loadup.com
Writing library : x264 core 138 r2358 9e941d1
Encoding settings : cabac=1 / ref=4 / deblock=1:-1:-1 / analyse=0x3:0x113 / me=umh / subme=6 / psy=1 / psy_rd=1.00:0.00 / mixed_ref=1 / me_range=20 / chroma_me=1 / trellis=1 / 8x8dct=1 / cqm=2 / deadzone=21,11 / fast_pskip=0 / chroma_qp_offset=-2 / threads=6 / lookahead_threads=1 / sliced_threads=0 / nr=0 / decimate=0 / interlaced=0 / bluray_compat=0 / constrained_intra=0 / bframes=5 / b_pyramid=2 / b_adapt=2 / b_bias=0 / direct=3 / weightb=1 / open_gop=0 / weightp=2 / keyint=240 / keyint_min=23 / scenecut=40 / intra_refresh=0 / rc_lookahead=50 / rc=2pass / mbtree=1 / bitrate=3350 / ratetol=1.0 / qcomp=0.60 / qpmin=1 / qpmax=63 / qpstep=4 / cplxblur=20.0 / qblur=0.5 / vbv_maxrate=62500 / vbv_bufsize=78125 / nal_hrd=none / ip_ratio=1.40 / aq=1:1.00
Language : English
Default : Yes
Forced : No

Audio #1
ID : 2
Format : AC-3
Format/Info : Audio Coding 3
Commercial name : Dolby Digital
Codec ID : A_AC3
Duration : 1 h 18 min
Bit rate mode : Constant
Bit rate : 224 kb/s
Channel(s) : 2 channels
Channel layout : L R
Sampling rate : 48.0 kHz
Frame rate : 31.250 FPS (1536 SPF)
Bit depth : 16 bits
Compression mode : Lossy
Stream size : 125 MiB (6%)
Title : AC3 DVDMASTER
Language : Thai
Service kind : Complete Main
Default : Yes
Forced : Yes

Audio #2
ID : 3
Format : AC-3
Format/Info : Audio Coding 3
Commercial name : Dolby Digital
Codec ID : A_AC3
Duration : 1 h 18 min
Bit rate mode : Constant
Bit rate : 448 kb/s
Channel(s) : 6 channels
Channel layout : L R C LFE Ls Rs
Sampling rate : 48.0 kHz
Frame rate : 31.250 FPS (1536 SPF)
Bit depth : 16 bits
Compression mode : Lossy
Stream size : 250 MiB (11%)
Title : AC3
Language : English
Service kind : Complete Main
Default : No
Forced : No

Text #1
ID : 4
Format : VobSub
Codec ID : S_VOBSUB
Codec ID/Info : Picture based subtitle format used on DVDs
Duration : 1 h 7 min
Bit rate : 2 041 b/s
Count of elements : 1010
Stream size : 1 013 KiB (0%)
Title : TH 480P
Language : Thai
Default : No
Forced : No

Text #2
ID : 5
Format : VobSub
Codec ID : S_VOBSUB
Codec ID/Info : Picture based subtitle format used on DVDs
Duration : 1 h 7 min
Bit rate : 6 312 b/s
Count of elements : 1010
Stream size : 3.06 MiB (0%)
Title : TH 1080P
Language : Thai
Default : Yes
Forced : Yes

Text #3
ID : 6
Format : UTF-8
Codec ID : S_TEXT/UTF8
Codec ID/Info : UTF-8 Plain Text
Duration : 1 h 7 min
Bit rate : 52 b/s
Count of elements : 1009
Stream size : 26.2 KiB (0%)
Title : SRT
Language : English
Default : No
Forced : No

Text #4
ID : 7
Format : PGS
Codec ID : S_HDMV/PGS
Codec ID/Info : Picture based subtitle format used on BDs/HD-DVDs
Duration : 1 h 7 min
Bit rate : 23.9 kb/s
Count of elements : 2024
Stream size : 11.6 MiB (1%)
Title : BDMASTER
Language : Thai
Default : No
Forced : No

DOWNLOAD


PART01 |||| PART02 |||| PART03

PART01 |||| PART02 |||| PART03

PART01 |||| PART02 |||| PART03

PART01 |||| PART02 |||| PART03


Leave A Reply

Your email address will not be published.

%d bloggers like this: