โหลดหนัง HD MINI-HD SUPER-HQ Full-HD 1080p VIP Master Zoom ซูม หนังใหม่ ออนไลน์ มาสเตอร์ ไทย จีน ฝรั่ง การ์ตูน

[MINI-HD] The Nun (2005) ผีแม่ชี [720p] [พากย์ไทย 5.1 + เสียงอังกฤษ 5.1] [บรรยายไทย + อังกฤษ] [เสียงไทย + ซับไทย]

0

โหลดหนัง  The Nun (2005) ผีแม่ชี

เรื่องย่อ The Nun (2005) ผีแม่ชี

กลุ่มนักเรียนหญิงวัย 15 ปี 6 คนต้องทนทุกข์อยู่ในโรงเรียนประจำแห่งหนึ่ง แต่ละวันพวกเธอต้องเผชิญกับแม่ชีที่ทั้งคุกคามและปฏิบัติต่อพวกเธออย่างทารุณ วันหนึ่งแม่ชีคนนั้นพบว่านักเรียนคนหนึ่งในกลุ่มตั้ง ท้อง เธอรู้สึกอับอายมาก และพยายามจะชำระความบริสุทธิ์ให้ เพื่อนๆของนักเรียนสาวคนนั้นเห็นเธอทรมาน ด้วยความกลัวระคนโกรธแค้น ทั้งหกจึงตัดสินใจช่วยเพื่อนเอาไว้ หลังจากวันนั้นก็ไม่มีใครเห็นแม่ชีคนนั้นอีกเลย และไม่กี่สัปดาห์โรงเรียนแห่งนั้นก็ถูกปิด
…17 ปีต่อมา นักเรียนสาว 6 คนนั้นต่างก็มีชีวิตของตนเอง พวกเธอสร้างชีวิตใหม่โดยไม่ติดต่อกันเลย เพราะต่างก็หวังว่าความลับครั้งนั้นจะถูกฝังไว้ในอดีตตลอดกาล แต่แล้วคืนหนึ่ง 1 ใน 6 ของกลุ่มนั้นก็ถูกฆ่าตายอย่างโหดเหี้ยม ไม่กี่วันถัดมาอีกคนหนึ่งก็กลายเป็นศพในสภาพที่สยดสยองไม่แพ้กัน หญิงสาวที่เหลือเริ่มคิดว่าการตายของเพื่อนๆอาจมีบาง อย่างเกี่ยวพันกัน และหากเป็นเช่นนั้น ชีวิตของพวกเธอก็กำลังตกอยู่ในอันตราย ทั้งหมดจึงจำต้องกลับมารวมตัวกันอีกครั้งเพื่อหาทางหยุดวิญญาณแม่ชีตนนี้ก่อนที่พวกเธอจะกลายเป็นศพต่อไป เพราะทุกคนรู้ดีว่าแม่ชีตนนั้นกลับมาแล้ว และกำลังออกแก้แค้น…
ทางเดียวที่จะหยุดเรื่องราวนี้ได้ก็คือต้องกลับไปยัง จุดเริ่มต้น นั่นก็คือ โรงเรียนประจำแห่งนั้น อีวา คือ สาวน้อยวัย 17 ปี ที่สูญเสียแม่ไปจากการออกล้างแค้นของผีแม่ชี เธอร่วมมือกับเพื่อนๆ หาทางหยุดความคลั่งของแม่ชีตนนี้ แต่การออกตามหาความจริงครั้งนี้กลับทำให้เธอได้ค้นพบ อดีตอันดำมืดและน่ากลัวของตนเอง!!

Complete name : [MINI-HD]_The.Nun.2005.720p.BDRip.One2loadup.com.mkv
Format : Matroska
Format version : Version 4 / Version 2
File size : 3.79 GiB
Duration : 1 h 41 min
Overall bit rate : 5 332 kb/s
Movie name : [MINI-HD]_The.Nun.2005.720p.BDRip.One2loadup.com
Encoded date : UTC 2015-12-12 01:28:43
Writing application : mkvmerge v8.1.0 (‘Psychedelic Postcard’) 32bit
Writing library : libebml v1.3.1 + libmatroska v1.4.2

Video
ID : 1
Format : AVC
Format/Info : Advanced Video Codec
Format profile : [email protected]
Format settings : CABAC / 5 Ref Frames
Format settings, CABAC : Yes
Format settings, ReFrames : 5 frames
Codec ID : V_MPEG4/ISO/AVC
Duration : 1 h 41 min
Bit rate : 4 645 kb/s
Width : 1 280 pixels
Height : 544 pixels
Display aspect ratio : 2.35:1
Frame rate mode : Constant
Frame rate : 23.976 (24000/1001) FPS
Color space : YUV
Chroma subsampling : 4:2:0
Bit depth : 8 bits
Scan type : Progressive
Bits/(Pixel*Frame) : 0.278
Stream size : 3.21 GiB (85%)
Title : [MINI-HD]_The.Nun.2005.720p.BDRip.One2loadup.com
Writing library : x264 core 129 r2245 bc13772
Encoding settings : cabac=1 / ref=5 / deblock=1:0:0 / analyse=0x3:0x133 / me=umh / subme=7 / psy=1 / psy_rd=1.00:0.00 / mixed_ref=1 / me_range=16 / chroma_me=1 / trellis=1 / 8x8dct=1 / cqm=0 / deadzone=21,11 / fast_pskip=0 / chroma_qp_offset=-2 / threads=6 / lookahead_threads=1 / sliced_threads=0 / nr=0 / decimate=1 / interlaced=0 / bluray_compat=0 / constrained_intra=0 / bframes=3 / b_pyramid=2 / b_adapt=1 / b_bias=0 / direct=1 / weightb=1 / open_gop=0 / weightp=2 / keyint=240 / keyint_min=23 / scenecut=40 / intra_refresh=0 / rc_lookahead=40 / rc=2pass / mbtree=1 / bitrate=4645 / ratetol=1.0 / qcomp=0.60 / qpmin=10 / qpmax=69 / qpstep=4 / cplxblur=20.0 / qblur=0.5 / ip_ratio=1.40 / aq=1:1.00
Language : English
Default : Yes
Forced : No

Audio #1
ID : 2
Format : AC-3
Format/Info : Audio Coding 3
Codec ID : A_AC3
Duration : 1 h 41 min
Bit rate mode : Constant
Bit rate : 256 kb/s
Channel(s) : 6 channels
Channel positions : Front: L C R, Side: L R, LFE
Sampling rate : 48.0 kHz
Frame rate : 31.250 FPS (1536 SPF)
Bit depth : 16 bits
Compression mode : Lossy
Delay relative to video : 12 ms
Stream size : 186 MiB (5%)
Title : AC3 DVD MASTER
Language : Thai
Service kind : Complete Main
Default : Yes
Forced : Yes

Audio #2
ID : 3
Format : AC-3
Format/Info : Audio Coding 3
Codec ID : A_AC3
Duration : 1 h 41 min
Bit rate mode : Constant
Bit rate : 448 kb/s
Channel(s) : 6 channels
Channel positions : Front: L C R, Side: L R, LFE
Sampling rate : 48.0 kHz
Frame rate : 31.250 FPS (1536 SPF)
Bit depth : 16 bits
Compression mode : Lossy
Stream size : 326 MiB (8%)
Title : AC3 MASTER
Language : English
Service kind : Complete Main
Default : No
Forced : No

Text #1
ID : 4
Format : VobSub
Codec ID : S_VOBSUB
Codec ID/Info : Picture based subtitle format used on DVDs
Title : 480P DVD YELLOW
Language : Thai
Default : Yes
Forced : No

Text #2
ID : 5
Format : VobSub
Codec ID : S_VOBSUB
Codec ID/Info : Picture based subtitle format used on DVDs
Title : 480P DVD MASTER
Language : Thai
Default : No
Forced : No

Text #3
ID : 6
Format : UTF-8
Codec ID : S_TEXT/UTF8
Codec ID/Info : UTF-8 Plain Text
Title : SRT
Language : English
Default : No
Forced : No

DOWNLOAD


PART01 |||| PART02 |||| PART03 |||| PART0

PART01 |||| PART02 |||| PART03 |||| PART04

PART01 |||| PART02 |||| PART03 |||| PART04

PART01 |||| PART02 |||| PART03 |||| PART04


Leave A Reply

Your email address will not be published.

%d bloggers like this: