[MINI-HD] The Nativity Story (2006) กำเนิดพระเยซู [720p] [พากย์ไทย 5.1 + เสียงอังกฤษ 5.1] [DVDRip] [บรรยายไทย + อังกฤษ] [เสียงไทย + ซับไทย] [ONE2UP]

0

The Nativity Story (2006)

โหลดหนัง  The Nativity Story (2006) กำเนิดพระเยซู

The Nativity Story (2006) 1h 41min | Drama, Family, History | 7 December 2006 (Netherlands) Summary: A drama that focuses on the period in Mary and Joseph's life where they journeyed to Bethlehem for the birth of Jesus.
Countries: USALanguages: English

เรื่องย่อ The Nativity Story (2006) กำเนิดพระเยซู

จุดเริ่มต้นต่ำต้อย สู่เรื่องราวสูงส่ง The Nativity Story เล่าเรื่องราวเหลือเชื่อของคู่รัก แมรี่ (ไคชา แคสเซิล ฮิวจ์) และ โจเซฟ (ออสการ์ ไอแซค) ที่ให้กำเนิดบุตรทั้งที่ฝ่ายหญิงยังคงพรหมจรรย์อยู่ ในสมัยกษัตริย์เฮรอด บ้านเมืองตกอยู่ในภาวะแร้นแค้นจนประชาชนเดือดร้อนกัน ทุกหัวระแหง ครอบครัวของแมรี่ก็เช่นกัน พ่อของเธอจึงให้เธอหมั้นหมายกับช่างไม้หนุ่มนาม โจเซฟ โดยหญิงสาวไม่รู้เลยว่านั่นคือจุดเริ่มต้นของเรื่องราวที่จะพลิกชะตาโลกไปตลอดกาล คืนหนึ่งแมรี่ฝันเห็นนิมิตศักดิ์สิทธิ์จากสวรรค์ว่าบุตรแห่งพระเจ้าจะถือกำเนิดผ่านครรภ์ของเธอ โดยเธอต้องตั้งชื่อเขาว่าเยซู แต่การท้องก่อนแต่งทำให้สังคมประณามแมรี่อย่างรุนแรง ครอบครัวเธอเองก็รับไม่ได้ ฝ่ายโจเซฟก็รู้ดีว่านั่นไม่ใช่ลูกของตน แต่ก็จำใจเชื่อเรื่องเหลือเชื่อที่แมรี่บอก เมื่อทางการสั่งให้โจเซฟเดินทางสู่บ้านเกิดเพื่อลงทะ เบียนสำมะโนประชากร แมรี่ก็ต้องติดตามไปด้วยในฐานะภรรยา หลังการเดินทางอันยาวไกลและยากลำบาก แมรี่ได้คลอดบุตรชายชื่อเยซูในคอกม้าแห่งหนึ่ง ณ เมือง เบธเลเฮม ชาวบ้านต่างพากันมาร่วมบูชาบุตรแห่งพระเจ้า เมื่อข่าวนี้แพร่กระจายออกไป กษัตริย์เฮรอดก็เกรงว่าบัลลังก์ของตนจะสะเทือนเพราะแรงศรัทธา จึงส่งทหารไปเมืองเบธเลเฮมเพื่อสังหารทารกตัวน้อย อนาคตศาสดาแห่งคริสตศาสนาจะรอดพ้นเงื้อมมือชั่วร้ายน ี้ได้อย่างไร คือสิ่งที่ต้องติดตาม นักแสดง ไคชา แคสเซิล ฮิวจ์ (Whale Rider) ออสการ์ ไอแซค (The Blood Diamond) โชห์เรห์ อักแดชโล (X-Men3) ซีเรียน ไฮด์ (Munich) นาดิม ซาวัลฮา (Syriana) กำกับการแสดง แคทเธอรีน ฮาร์ดวิก (Lord of Dogtown, Thirteen)

Complete name : [MINI-HD]_The.Nativity.Story.2006.720p.DVDRip.AC3.One2loadup.com.mkv
Format : Matroska
Format version : Version 2
File size : 3.53 GiB
Duration : 1 h 40 min
Overall bit rate mode : Variable
Overall bit rate : 5 012 kb/s
Movie name : [MINI-HD]_The.Nativity.Story.2006.720p.DVDRip.AC3.One2loadup.com
Encoded date : UTC 2015-08-28 06:31:11
Writing application : MakeMKV v1.7.8 win(x86-release)
Writing library : libmakemkv v1.7.8 (1.2.0/1.1.0) win(x86-release)

Video
ID : 1
Format : MPEG Video
Format version : Version 2
Format profile : [email protected]
Format settings : CustomMatrix / BVOP
Format settings, BVOP : Yes
Format settings, Matrix : Custom
Format settings, GOP : M=3, N=15
Format settings, picture st : Frame
Codec ID : V_MPEG2
Codec ID/Info : MPEG 1 or 2 Video
Duration : 1 h 40 min
Bit rate mode : Variable
Bit rate : 3 824 kb/s
Maximum bit rate : 9 802 kb/s
Width : 720 pixels
Height : 480 pixels
Display aspect ratio : 16:9
Frame rate mode : Constant
Frame rate : 29.970 (30000/1001) FPS
Standard : NTSC
Color space : YUV
Chroma subsampling : 4:2:0
Bit depth : 8 bits
Scan type : Interlaced
Scan order : Top Field First
Compression mode : Lossy
Bits/(Pixel*Frame) : 0.369
Stream size : 2.69 GiB (76%)
Title : [MINI-HD]_The.Nativity.Story.2006.720p.DVDRip.AC3.One2loadup.com
Language : English
Default : No
Forced : No

Audio #1
ID : 2
Format : AC-3
Format/Info : Audio Coding 3
Commercial name : Dolby Digital
Codec ID : A_AC3
Duration : 1 h 40 min
Bit rate mode : Constant
Bit rate : 448 kb/s
Channel(s) : 6 channels
Channel layout : L R C LFE Ls Rs
Sampling rate : 48.0 kHz
Frame rate : 31.250 FPS (1536 SPF)
Bit depth : 16 bits
Compression mode : Lossy
Stream size : 323 MiB (9%)
Title : 3/2+1
Language : Thai
Service kind : Complete Main
Default : Yes
Forced : No

Audio #2
ID : 3
Format : AC-3
Format/Info : Audio Coding 3
Commercial name : Dolby Digital
Codec ID : A_AC3
Duration : 1 h 40 min
Bit rate mode : Constant
Bit rate : 448 kb/s
Channel(s) : 6 channels
Channel layout : L R C LFE Ls Rs
Sampling rate : 48.0 kHz
Frame rate : 31.250 FPS (1536 SPF)
Bit depth : 16 bits
Compression mode : Lossy
Stream size : 323 MiB (9%)
Title : 3/2+1
Language : English
Service kind : Complete Main
Default : No
Forced : No

Audio #3
ID : 4
Format : AC-3
Format/Info : Audio Coding 3
Commercial name : Dolby Digital
Codec ID : A_AC3
Duration : 1 h 40 min
Bit rate mode : Constant
Bit rate : 192 kb/s
Channel(s) : 2 channels
Channel layout : L R
Sampling rate : 48.0 kHz
Frame rate : 31.250 FPS (1536 SPF)
Bit depth : 16 bits
Compression mode : Lossy
Stream size : 139 MiB (4%)
Title : 2/0
Language : English
Service kind : Complete Main
Default : No
Forced : No

Text #1
ID : 5
Format : VobSub
Codec ID : S_VOBSUB
Codec ID/Info : Picture based subtitle format used on DVDs
Language : Thai
Default : Yes
Forced : No

Text #2
ID : 6
Format : VobSub
Codec ID : S_VOBSUB
Codec ID/Info : Picture based subtitle format used on DVDs
Language : English
Default : No
Forced : No

Menu
00:00:00.000 : en:Chapter 01
00:15:14.496 : en:Chapter 02
00:24:07.028 : en:Chapter 03
00:32:33.368 : en:Chapter 04
00:40:08.406 : en:Chapter 05
00:47:20.420 : en:Chapter 06
00:55:46.426 : en:Chapter 07
01:04:31.117 : en:Chapter 08
01:12:28.761 : en:Chapter 09
01:18:33.291 : en:Chapter 10
01:29:45.963 : en:Chapter 11
01:33:58.699 : en:Chapter 12

DOWNLOAD


PART01 |||| PART02 |||| PART03 |||| PART04

PART01 |||| PART02 |||| PART03 |||| PART04

PART01 |||| PART02 |||| PART03 |||| PART04

PART01 |||| PART02 |||| PART03 |||| PART04


Leave A Reply

Your email address will not be published.

%d bloggers like this: