[MINI-HD] The Marine 3 (2013) เดอะ มารีน คนคลั่งล่าทะลุสุดขีดนรก ภาค 3 [1080p] [พากย์ไทย 5.1 + เสียงอังกฤษ DTS] [บรรยายไทย + อังกฤษ] [เสียงไทย + ซับไทย] [ONE2UP]

0

โหลดหนัง  The Marine 3 (2013) เดอะ มารีน คนคลั่งล่าทะลุสุดขีดนรก ภาค 3

เรื่องย่อ The Marine 3 (2013) เดอะ มารีน คนคลั่งล่าทะลุสุดขีดนรก ภาค 3

นัก มวยปล้ำซูเปอร์สตาร์จาก WWE ไมค์ “เดอะ มิซ” มิซานิน ล่าระห่ำไม่ยั้งในภาพยนตร์แอ็คชั่นที่มันส์ที่สุดของ ชุด “เดอะ มารีน” ขณะลาพักราชการเพื่อกลับมาเยี่ยมภูมิลำเนา จ่าสิบเอก เจค คาร์เตอร์พบว่าน้องสาวของเขาถูกกลุ่มผู้ร้ายหัวรุนแรงจับตัวไป เพื่อช่วยชีวิตเธอ เจคได้ลุยเดี่ยวเข้าไปชนกับพวกมันถึงฐานบัญชาการ แล้วพบว่าหัวหน้าผู้โหดเหี้ยมของพวกมันกำลังวางแผนก่อการร้ายที่น่ากลัวและอันตรายที่สุด ขณะที่เวลาเหลือน้อบลงทุกที เจคพบว่ามีเพียงเขาตัวคนเดียวเท่านั้นที่จะหยุดการสังหารหมู่ที่กำลังจะเกิด ขึ้นได้ แต่วีรบุรุษของชาติผู้นี้อาจต้องสังเวยชีวิตตัวเองเพื่อแลกกับความปลอดภัยของผู้บริสุทธิ์นับพัน

Complete name : [MINI-HD]_3.The.Marine.Homefront.2013.720p.BluRay.DTS.One2loadup.com.mkv
Format : Matroska
Format version : Version 4
File size : 3.76 GiB
Duration : 1 h 30 min
Overall bit rate : 5 963 kb/s
Movie name : [MINI-HD]_3.The.Marine.Homefront.2013.720p.BluRay.DTS.One2loadup.com
Encoded date : UTC 2010-02-22 21:41:31
Writing application : mkvmerge v5.9.0 (‘On The Loose’) built on Dec 9 2012 15:37:01
Writing library : libebml v1.3.0 + libmatroska v1.4.0

Video
ID : 1
Format : MPEG-4 Visual
Format profile : Advanced [email protected]
Format settings : BVOP2
Format settings, BVOP : 2
Format settings, QPel : No
Format settings, GMC : No warppoints
Format settings, Matrix : Default (H.263)
Codec ID : V_MS/VFW/FOURCC / XVID
Codec ID/Hint : XviD
Duration : 1 h 30 min
Bit rate : 3 951 kb/s
Width : 1 280 pixels
Height : 720 pixels
Display aspect ratio : 16:9
Frame rate mode : Constant
Frame rate : 23.976 (24000/1001) FPS
Color space : YUV
Chroma subsampling : 4:2:0
Bit depth : 8 bits
Scan type : Progressive
Compression mode : Lossy
Bits/(Pixel*Frame) : 0.179
Stream size : 2.49 GiB (66%)
Title : [MINI-HD]_3.The.Marine.Homefront.2013.720p.BluRay.DTS.One2loadup.com
Writing library : XviD 1.2.1 (UTC 2008-12-04)
Language : English
Default : Yes
Forced : No

Audio #1
ID : 2
Format : DTS
Format/Info : Digital Theater Systems
Codec ID : A_DTS
Duration : 1 h 30 min
Bit rate mode : Constant
Bit rate : 1 509 kb/s
Channel(s) : 6 channels
Channel layout : C L R Ls Rs LFE
Sampling rate : 48.0 kHz
Frame rate : 93.750 FPS (512 SPF)
Bit depth : 24 bits
Compression mode : Lossy
Stream size : 974 MiB (25%)
Title : English DTS
Language : English
Default : No
Forced : No

Audio #2
ID : 3
Format : AC-3
Format/Info : Audio Coding 3
Commercial name : Dolby Digital
Codec ID : A_AC3
Duration : 1 h 30 min
Bit rate mode : Constant
Bit rate : 384 kb/s
Channel(s) : 6 channels
Channel layout : L R C LFE Ls Rs
Sampling rate : 48.0 kHz
Frame rate : 31.250 FPS (1536 SPF)
Bit depth : 16 bits
Compression mode : Lossy
Stream size : 248 MiB (6%)
Title : Thai DVD Master
Language : Thai
Service kind : Complete Main
Default : Yes
Forced : Yes

Text #1
ID : 4
Format : VobSub
Codec ID : S_VOBSUB
Codec ID/Info : Picture based subtitle format used on DVDs
Title : Thai 480p
Language : Thai
Default : No
Forced : No

Text #2
ID : 5
Format : VobSub
Codec ID : S_VOBSUB
Codec ID/Info : Picture based subtitle format used on DVDs
Title : Thai 1080p
Language : Thai
Default : Yes
Forced : Yes

Text #3
ID : 6
Format : VobSub
Codec ID : S_VOBSUB
Codec ID/Info : Picture based subtitle format used on DVDs
Title : Thai 1080p Low
Language : Thai
Default : No
Forced : No

Text #4
ID : 7
Format : VobSub
Codec ID : S_VOBSUB
Codec ID/Info : Picture based subtitle format used on DVDs
Title : Thai 1080p Yellow
Language : Thai
Default : No
Forced : No

Text #5
ID : 8
Format : PGS
Codec ID : S_HDMV/PGS
Codec ID/Info : Picture based subtitle format used on BDs/HD-DVDs
Title : Thai PGS
Language : Thai
Default : No
Forced : No

Text #6
ID : 9
Format : PGS
Codec ID : S_HDMV/PGS
Codec ID/Info : Picture based subtitle format used on BDs/HD-DVDs
Title : Thai PGS Low
Language : Thai
Default : No
Forced : No

Text #7
ID : 10
Format : PGS
Codec ID : S_HDMV/PGS
Codec ID/Info : Picture based subtitle format used on BDs/HD-DVDs
Title : Thai PGS Yellow
Language : Thai
Default : No
Forced : No

Text #8
ID : 11
Format : UTF-8
Codec ID : S_TEXT/UTF8
Codec ID/Info : UTF-8 Plain Text
Title : English
Language : English
Default : No
Forced : No

DOWNLOAD


PART01 |||| PART02 |||| PART03 |||| PART04

PART01 |||| PART02 |||| PART03 |||| PART04

PART01 |||| PART02 |||| PART03 |||| PART04

PART01 |||| PART02 |||| PART03 |||| PART04


Leave A Reply

Your email address will not be published.

%d bloggers like this: