[MINI-HD] The Marine (2006) เดอะ มารีน คนคลั่ง ล่าทะลุสุดขีดนรก ภาค 1 [1080p] [พากย์ไทย 5.1 + เสียงอังกฤษ 5.1] [บรรยายไทย] [เสียงไทย + ซับไทย] [ONE2UP]

0

The Marine (2006)

โหลดหนัง The Marine (2006) เดอะ มารีน คนคลั่ง ล่าทะลุสุดขีดนรก ภาค 1

The Marine (2006) 1h 32min | Action, Comedy, Drama | 13 October 2006 (Canada) Summary: A group of diamond thieves on the run kidnap the wife of a recently discharged marine who goes on a chase through the South Carolinian wilderness to retrieve her.
Countries: USALanguages: English, Arabic

เรื่องย่อ The Marine (2006) เดอะ มารีน คนคลั่ง ล่าทะลุสุดขีดนรก ภาค 1

จอห์น เซน่า แชมป์มวยปล้ำ WWE แสดงภาพยนตร์เรื่องแรก เปิดตัวด้วยแนวแอ็คชั่นลุ้นระทึกสุดโหด เซน่า รับบทเป็น จอห์น ไตรตั้น (John Triton) วีรบุรุษนาวิกโยธินหนุ่มที่มุ่งหน้ากลับบ้านหลังจากปลดประจำการ โดยที่เขาไม่เต็มใจนักจากสงครามอ่าวสมรภูมิอิรัก แต่กลับต้องมาต่อกรกับเพื่อนร่วมชาติ เมื่อภรรยาของเขา (เคลลี่ คาร์ลสัน) ถูกกลุ่มคนร้ายสุดโฉดลักพาตัวไป โดยมีโรม (โรเบิร์ต แพททริค) เป็นหัวหน้าจอมโหด เมื่อถึงเวลาต้องลุย เดอะ มารีน ก็ไม่เคยยอมให้อุปสรรคใดมาขวางหน้าจนกว่าภาระกิจสุดหินและสำคัญที่สุดในชีวิตจะสำเร็จลุล่วง

Complete name : [MINI-HD]_1.The.Marine.2006.1080p.BrRip.AC3.x264.One2loadup.com.mkv
Format : Matroska
Format version : Version 2
File size : 2.32 GiB
Duration : 1 h 31 min
Overall bit rate : 3 622 kb/s
Movie name : [MINI-HD]_1.The.Marine.2006.1080p.BrRip.AC3.x264.One2loadup.com
Encoded date : UTC 2017-04-15 16:07:06
Writing application : mkvmerge v3.2.0 (‘Beginnings’) built on Feb 12 2010 16:46:17
Writing library : libebml v0.7.9 + libmatroska v0.8.1

Video
ID : 1
Format : AVC
Format/Info : Advanced Video Codec
Format profile : [email protected]
Format settings : CABAC / 3 Ref Frames
Format settings, CABAC : Yes
Format settings, ReFrames : 3 frames
Codec ID : V_MPEG4/ISO/AVC
Duration : 1 h 31 min
Bit rate : 2 654 kb/s
Nominal bit rate : 2 800 kb/s
Width : 1 920 pixels
Height : 1 040 pixels
Display aspect ratio : 1.85:1
Frame rate mode : Constant
Frame rate : 23.976 (24000/1001) FPS
Color space : YUV
Chroma subsampling : 4:2:0
Bit depth : 8 bits
Scan type : Progressive
Bits/(Pixel*Frame) : 0.055
Stream size : 1.70 GiB (73%)
Title : [MINI-HD]_1.The.Marine.2006.1080p.BrRip.AC3.x264.One2loadup.com
Writing library : x264 core 116 r2019M 9cc407d
Encoding settings : cabac=1 / ref=3 / deblock=1:0:0 / analyse=0x3:0x133 / me=hex / subme=7 / psy=1 / psy_rd=1.00:0.20 / mixed_ref=1 / me_range=16 / chroma_me=1 / trellis=1 / 8x8dct=1 / cqm=0 / deadzone=21,11 / fast_pskip=1 / chroma_qp_offset=-3 / threads=12 / sliced_threads=0 / nr=0 / decimate=1 / interlaced=0 / bluray_compat=0 / constrained_intra=0 / bframes=3 / b_pyramid=1 / b_adapt=2 / b_bias=0 / direct=3 / weightb=1 / open_gop=0 / weightp=2 / keyint=230 / keyint_min=23 / scenecut=40 / intra_refresh=0 / rc_lookahead=40 / rc=abr / mbtree=1 / bitrate=2800 / ratetol=1.0 / qcomp=0.60 / qpmin=10 / qpmax=51 / qpstep=4 / ip_ratio=1.40 / aq=1:1.00
Default : No
Forced : No

Audio #1
ID : 2
Format : AC-3
Format/Info : Audio Coding 3
Commercial name : Dolby Digital
Codec ID : A_AC3
Duration : 1 h 31 min
Bit rate mode : Constant
Bit rate : 448 kb/s
Channel(s) : 6 channels
Channel layout : L R C LFE Ls Rs
Sampling rate : 48.0 kHz
Frame rate : 31.250 FPS (1536 SPF)
Bit depth : 16 bits
Compression mode : Lossy
Delay relative to video : 3 s 300 ms
Stream size : 294 MiB (12%)
Language : English
Service kind : Complete Main
Default : Yes
Forced : No

Audio #2
ID : 3
Format : AC-3
Format/Info : Audio Coding 3
Commercial name : Dolby Digital
Codec ID : A_AC3
Duration : 1 h 31 min
Bit rate mode : Constant
Bit rate : 448 kb/s
Channel(s) : 6 channels
Channel layout : L R C LFE Ls Rs
Sampling rate : 48.0 kHz
Frame rate : 31.250 FPS (1536 SPF)
Bit depth : 16 bits
Compression mode : Lossy
Delay relative to video : 3 s 200 ms
Stream size : 294 MiB (12%)
Language : Thai
Service kind : Complete Main
Default : No
Forced : No

Text
ID : 4
Format : VobSub
Muxing mode : zlib
Codec ID : S_VOBSUB
Codec ID/Info : Picture based subtitle format used on DVDs
Language : Thai
Default : Yes
Forced : No

DOWNLOAD


PART01 |||| PART02 |||| PART03

PART01 |||| PART02 |||| PART03

PART01 |||| PART02 |||| PART03

PART01 |||| PART02 |||| PART03


Leave A Reply

Your email address will not be published.

%d bloggers like this: