[MINI-HD] The Lost City of Z (2016) นครลับที่สาบสูญ [1080p] [พากย์ไทย 2.0 + เสียงอังกฤษ 5.1] [บรรยายไทย + อังกฤษ] [เสียงไทย + ซับไทย] [OPENLOAD]

0

The Lost City of Z (2016) นครลับที่สาบสูญ

โหลดหนัง The Lost City of Z (2016) นครลับที่สาบสูญ 

The Lost City of Z (2016) 2h 21min | Adventure, Biography, Drama | 27 April 2017 (Netherlands) Summary: A true-life drama, centering on British explorer Col. Percival Fawcett, who disappeared whilst searching for a mysterious city in the Amazon in the 1920s.
Countries: USALanguages: English, Portuguese, Tupi, Spanish, German

เรื่องย่อ The Lost City of Z (2016) นครลับที่สาบสูญ

นักสำรวจชาวอังกฤษ เพอร์ซี ฟอว์เซตต์ (ชาร์ลี ฮันแนม) ได้เดินทางเข้าไปในป่าอเมซอนช่วงต้นศตวรรษที่ 20 และได้ค้นพบหลักฐานทางอารยธรรมอันก้าวหน้าที่ไม่มีใครเคยล่วงรู้มาก่อน ซึ่งครั้งหนึ่งอาจเป็นที่ตั้งของชุมชนอารยะในแถบนั้น แต่เพราะวิทยาศาสตร์ได้ปรามาสชนพื้นเมืองไว้ว่าเป็นพวกป่าเถื่อน เพอร์ซี่ที่เห็นต่างจึงได้เดินทางเข้าไปสำรวจในป่าที่เขารักอีกครั้งเพื่อยืนยันข้อพิสูจน์ของเขาโดยได้รับการสนับสนุนจาก นีน่า (เซียนนา มิลเลอร์) ภรรยา, แจ็ค (ทอม ฮอลล์แลนด์) ลูกชาย และ เฮนรี่ (โรเบิร์ต แพตทินสัน) ทหารผู้ช่วย ก่อนที่เขาจะหายตัวไปอย่างลึกลับในปี 1925

Complete name : [MINI-HD]_The.Lost.City.Of.Z.2016.1080p.BrRip.DTS.x264.One2loadup.com.mkv
Format : Matroska
Format version : Version 4
File size : 4.14 GiB
Duration : 2 h 21 min
Overall bit rate : 4 196 kb/s
Movie name : [MINI Super-HQ]_The.Lost.City.Of.Z.2016.1080p.BrRip.DTS.x264.One2loadup.com
Encoded date : UTC 2019-01-21 09:43:18
Writing application : mkvmerge v29.0.0 (‘Like It Or Not’) 64-bit
Writing library : libebml v1.3.6 + libmatroska v1.4.9

Video
ID : 1
Format : AVC
Format/Info : Advanced Video Codec
Format profile : [email protected]
Format settings : CABAC / 4 Ref Frames
Format settings, CABAC : Yes
Format settings, ReFrames : 4 frames
Codec ID : V_MPEG4/ISO/AVC
Duration : 2 h 21 min
Bit rate : 2 194 kb/s
Width : 1 920 pixels
Height : 800 pixels
Display aspect ratio : 2.40:1
Frame rate mode : Constant
Frame rate : 23.976 (24000/1001) FPS
Color space : YUV
Chroma subsampling : 4:2:0
Bit depth : 8 bits
Scan type : Progressive
Bits/(Pixel*Frame) : 0.060
Stream size : 2.16 GiB (52%)
Title : [MINI Super-HQ]_The.Lost.City.Of.Z.2016.1080p.BrRip.DTS.x264.One2loadup.com
Writing library : x264 core 148 r2744 b97ae06
Encoding settings : cabac=1 / ref=3 / deblock=1:0:0 / analyse=0x3:0x113 / me=hex / subme=7 / psy=1 / psy_rd=1.00:0.00 / mixed_ref=1 / me_range=16 / chroma_me=1 / trellis=1 / 8x8dct=1 / cqm=0 / deadzone=21,11 / fast_pskip=1 / chroma_qp_offset=-2 / threads=6 / lookahead_threads=1 / sliced_threads=0 / nr=0 / decimate=1 / interlaced=0 / bluray_compat=0 / constrained_intra=0 / bframes=3 / b_pyramid=2 / b_adapt=1 / b_bias=0 / direct=1 / weightb=1 / open_gop=0 / weightp=2 / keyint=240 / keyint_min=23 / scenecut=40 / intra_refresh=0 / rc_lookahead=40 / rc=2pass / mbtree=1 / bitrate=2194 / ratetol=1.0 / qcomp=0.60 / qpmin=0 / qpmax=69 / qpstep=4 / cplxblur=20.0 / qblur=0.5 / ip_ratio=1.40 / aq=1:1.00
Default : Yes
Forced : No

Audio #1
ID : 2
Format : AAC LC
Format/Info : Advanced Audio Codec Low Complexity
Codec ID : A_AAC-2
Duration : 2 h 21 min
Bit rate : 126 kb/s
Channel(s) : 2 channels
Channel layout : L R
Sampling rate : 44.1 kHz
Frame rate : 43.066 FPS (1024 SPF)
Compression mode : Lossy
Stream size : 127 MiB (3%)
Language : Thai
Default : Yes
Forced : No

Audio #2
ID : 3
Format : AAC LC
Format/Info : Advanced Audio Codec Low Complexity
Codec ID : A_AAC-2
Duration : 2 h 21 min
Bit rate : 337 kb/s
Channel(s) : 6 channels
Channel layout : C L R Ls Rs LFE
Sampling rate : 48.0 kHz
Frame rate : 46.875 FPS (1024 SPF)
Compression mode : Lossy
Stream size : 340 MiB (8%)
Language : English
Default : No
Forced : No

Audio #3
ID : 4
Format : DTS
Format/Info : Digital Theater Systems
Codec ID : A_DTS
Duration : 2 h 21 min
Bit rate mode : Constant
Bit rate : 1 509 kb/s
Channel(s) : 6 channels
Channel layout : C L R Ls Rs LFE
Sampling rate : 48.0 kHz
Frame rate : 93.750 FPS (512 SPF)
Bit depth : 24 bits
Compression mode : Lossy
Stream size : 1.49 GiB (36%)
Language : English
Default : No
Forced : No

Text #1
ID : 5
Format : UTF-8
Codec ID : S_TEXT/UTF8
Codec ID/Info : UTF-8 Plain Text
Duration : 2 h 12 min
Bit rate : 109 b/s
Count of elements : 1562
Stream size : 106 KiB (0%)
Language : Thai
Default : Yes
Forced : No

Text #2
ID : 6
Format : PGS
Muxing mode : zlib
Codec ID : S_HDMV/PGS
Codec ID/Info : Picture based subtitle format used on BDs/HD-DVDs
Duration : 2 h 12 min
Bit rate : 41.4 kb/s
Count of elements : 3126
Stream size : 39.2 MiB (1%)
Title : modified by Meeniiz-Fs
Language : Thai
Default : No
Forced : No

Text #3
ID : 7
Format : VobSub
Muxing mode : zlib
Codec ID : S_VOBSUB
Codec ID/Info : Picture based subtitle format used on DVDs
Duration : 2 h 12 min
Bit rate : 9 468 b/s
Count of elements : 1561
Stream size : 8.96 MiB (0%)
Title : modified by Meeniiz-Fs
Language : Thai
Default : No
Forced : No

Text #4
ID : 8
Format : VobSub
Muxing mode : zlib
Codec ID : S_VOBSUB
Codec ID/Info : Picture based subtitle format used on DVDs
Duration : 2 h 12 min
Bit rate : 9 468 b/s
Count of elements : 1561
Stream size : 8.96 MiB (0%)
Title : modified by Meeniiz-Fs
Language : Thai
Default : No
Forced : No

Text #5
ID : 9
Format : UTF-8
Codec ID : S_TEXT/UTF8
Codec ID/Info : UTF-8 Plain Text
Duration : 2 h 10 min
Bit rate : 49 b/s
Count of elements : 1567
Stream size : 47.4 KiB (0%)
Language : English
Default : No
Forced : No

DOWNLOAD


PART01 |||| PART02 |||| PART03 |||| PART04 |||| PART05

PART01 |||| PART02 |||| PART03 |||| PART04 |||| PART05

PART01 |||| PART02 |||| PART03 |||| PART04 |||| PART05

PART01 |||| PART02 |||| PART03 |||| PART04 |||| PART05


Leave A Reply

Your email address will not be published.

%d bloggers like this: