โหลดหนัง HD MINI-HD SUPER-HQ Full-HD 1080p VIP Master Zoom ซูม หนังใหม่ ออนไลน์ มาสเตอร์ ไทย จีน ฝรั่ง การ์ตูน

[MINI-HD] The Legend of Suriyothai (2001) สุริโยไท [1080p] [พากย์ไทย 2.0] [ฉบับสมบูรณ์ 5 ชั่วโมง] [ไม่มีบรรยาย] [เสียงไทย] [OPENLOAD]

0

โหลดหนัง  The Legend of Suriyothai (2001) สุริโยไท

เรื่องย่อ The Legend of Suriyothai (2001) สุริโยไท

ณ อาณาจักรกรุงอโยธยาซึ่งมีการผลัดเปลี่ยนแย่งชิงราชบัลลังก์เกิดขึ้นในช่วงรัชสมัย พร้อมทั้งต้องเผชิญศึกกับประเทศพม่าอีกด้วย โดยเน้นนำเสนอถึงวีรเกียรติความหาญกล้าของวีรสตรีไทยนาม ” พระศรีสุริโยไท” เมื่อสมเด็จพระรามาธิบดีที่ ๒.(พิศาล อัครเศรณี). สิ้นพระชนม์ในปี พ.ศ. ๒๐๗๒.(ค.ศ. ๑๕๒๙).ซึ่งเป็นปีที่ดาวหางฮัลเลย์ปรากฏ พระอาทิตยาจึงได้ขึ้นครองราชย์ ทรงพระนาม หน่อพุทธางกูร ทุกพระองค์เสด็จย้ายจากพิษณุโลกไปประทับ ณ กรุงศรีอยุยาเมืองหลวง พระเฑียรราชา.(รับบทวัยหนุ่มโดย ศรัณยู วงศ์กระจ่าง).และ.พระ สุริโยไท.(รับบทวัยสาวโดย คุณหญิง ม.ล. ปิยาภัสร์ ภิรมย์ภักดี).มีโอรสธิดาทั้งสิ้น ๕ พระองค์ คือเพระราเมศวร.(เกียรติศักดิ์ ศักดานุภาพ)., พระมหินทร.(อภิญญ์ รัชตะหิรัญ)., พระบรมดิลก .(ชมพูนุท เศวตวงศ์)., พระสวัสดิราช.(พิมลรัตน์ พิศลยบุตร).และ.พระเทพกษัตรี.(จีระนันท์ กิจ ประสาน).ประทับอยู่ ณ วังชัย ดำรงอิสริยยศเป็นพระเยาวราช

Complete name : [MINI-HD]_The.Legend.of.Suriyothai.2001.1080p.x264.One2loadup.com.mkv
Format : Matroska
Format version : Version 4
File size : 4.48 GiB
Duration : 5 h 0 min
Overall bit rate : 2 139 kb/s
Movie name : [MINI-HD]_The.Legend.of.Suriyothai.2001.1080p.x264.One2loadup.com
Encoded date : UTC 2016-10-03 15:02:41
Writing application : mkvmerge v8.3.0 (‘Over the Horizon’) 32bit
Writing library : libebml v1.3.1 + libmatroska v1.4.2

Video
ID : 1
Format : AVC
Format/Info : Advanced Video Codec
Format profile : [email protected]
Format settings : 1 Ref Frames
Format settings, CABAC : No
Format settings, ReFrames : 1 frame
Codec ID : V_MPEG4/ISO/AVC
Duration : 5 h 0 min
Bit rate : 1 995 kb/s
Width : 1 920 pixels
Height : 1 080 pixels
Display aspect ratio : 16:9
Frame rate mode : Constant
Frame rate : 23.976 (24000/1001) FPS
Original frame rate : 23.976 (23976/1000) FPS
Color space : YUV
Chroma subsampling : 4:2:0
Bit depth : 8 bits
Scan type : Progressive
Bits/(Pixel*Frame) : 0.040
Stream size : 4.22 GiB (94%)
Title : [MINI-HD]_The.Legend.of.Suriyothai.2001.1080p.x264.One2loadup.com
Writing library : x264 core 148 r2665 a01e339
Encoding settings : cabac=0 / ref=1 / deblock=1:0:0 / analyse=0x3:0x113 / me=hex / subme=7 / psy=1 / psy_rd=1.00:0.00 / mixed_ref=0 / me_range=16 / chroma_me=1 / trellis=1 / 8x8dct=1 / cqm=0 / deadzone=21,11 / fast_pskip=1 / chroma_qp_offset=-2 / threads=6 / lookahead_threads=1 / sliced_threads=0 / nr=0 / decimate=1 / interlaced=0 / bluray_compat=0 / constrained_intra=0 / bframes=0 / weightp=2 / keyint=250 / keyint_min=23 / scenecut=40 / intra_refresh=0 / rc_lookahead=40 / rc=abr / mbtree=1 / bitrate=1995 / ratetol=1.0 / qcomp=0.60 / qpmin=0 / qpmax=69 / qpstep=4 / ip_ratio=1.40 / aq=1:1.00
Default : Yes
Forced : No

Audio
ID : 2
Format : AAC Main
Format/Info : Advanced Audio Codec
Codec ID : A_AAC-1
Duration : 5 h 0 min
Bit rate : 126 kb/s
Channel(s) : 2 channels
Channel layout : L R
Sampling rate : 44.1 kHz
Frame rate : 43.066 FPS (1024 SPF)
Compression mode : Lossy
Stream size : 270 MiB (6%)
Default : Yes
Forced : No

DOWNLOAD


PART01 |||| PART02 |||| PART03 |||| PART04 |||| PART05

PART01 |||| PART02 |||| PART03 |||| PART04 |||| PART05

PART01 |||| PART02 |||| PART03 |||| PART04 |||| PART05

PART01 |||| PART02 |||| PART03 |||| PART04 |||| PART05


Leave A Reply

Your email address will not be published.

%d bloggers like this: